Торрент файл
скачать торрент магнет ссылка Добавлен: 28 мар 2018, 10:59
Размер: 2.18 ГБ
Сидеров: 122
Личеров: 17
Статус: (salma3)
Автор

СообщениеДобавлено: 28 мар 2018, 10:59 

Не в сети
Супермодератор
Аватара пользователя
Дата регистрации:
15 фев 2012, 16:44
Возраст: 28
Спасибо: 7290 / 2147
Сообщения: 70562
Год выпуска: 2018
Жанр:мелодрама, драма, спорт
Режиссер: Олег Трофим

В ролях: Аглая Тарасова, Диана Енакаева, Мария Аронова, Александр Петров, Милош Бикович, Ян Цапник, Ксения Раппопорт, Павел Майков

Описание:
С самого детства Надя верила в чудеса. Она представляла себе, как выходит на лёд под овации публики и танцует свой самый красивый танец. И вот, благодаря вере и упорству, Надя становится знаменитой фигуристкой. Но когда ее мечты о громких победах, красивой жизни и прекрасном принце уже, кажется, готовы исполниться, судьба преподносит ей настоящее испытание. И чтобы его пройти, нужно будет снова, как в детстве, поверить в мечту. Ведь, может быть, победа не всегда должна быть громкой, а прекрасный принц не обязательно передвигается на белом коне..?



Страна:Россия
Продолжительность:01:57:51
Перевод:не требуется [iTunes]

Качество: WEB-DLRip
Видео: 720x304 (2.35:1), 23.976 fps, XviD build 73 ~2 252 kbps avg
Аудио: 48 kHz, AC3 Dolby Digital, 3/2 (L,C,R,l,r) + LFE ch, ~384 kbps



General
Format : AVI
Format/Info : Audio Video Interleave
Format profile : OpenDML
File size : 2.18 GiB
Duration : 1 h 57 min
Overall bit rate : 2 648 kb/s
Writing application : VirtualDubMod 1.5.10.3 | (build 2550/release)
Writing library : VirtualDubMod build 2550/release
Video
ID : 0
Format : MPEG-4 Visual
Format profile : Advanced [email protected]
Format settings : BVOP1 / Custom Matrix
Format settings, BVOP : 1
Format settings, QPel : No
Format settings, GMC : No warppoints
Format settings, Matrix : Custom
Codec ID : XVID
Codec ID/Hint : XviD
Duration : 1 h 57 min
Bit rate : 2 252 kb/s
Width : 720 pixels
Height : 304 pixels
Display aspect ratio : 2.35:1
Frame rate : 23.976 (24000/1001) FPS
Color space : YUV
Chroma subsampling : 4:2:0
Bit depth : 8 bits
Scan type : Progressive
Compression mode : Lossy
Bits/(Pixel*Frame) : 0.429
Stream size : 1.85 GiB (85%)
Writing library : XviD 73

Audio
ID : 1
Format : AC-3
Format/Info : Audio Coding 3
Codec ID : 2000
Duration : 1 h 57 min
Bit rate mode : Constant
Bit rate : 384 kb/s
Channel(s) : 6 channels
Channel positions : Front: L C R, Side: L R, LFE
Sampling rate : 48.0 kHz
Frame rate : 31.250 FPS (1536 SPF)
Bit depth : 16 bits
Compression mode : Lossy
Stream size : 324 MiB (15%)
Alignment : Split accross interleaves
Interleave, duration : 42 ms (1.00 video frame)
Interleave, preload duratio : 500 ms
Service kind : Complete Main


_________________
Проголосуй за трекер Открытый торрент трекер - RUS-MEDIA.ORG

Проголосуй Открытый торрент трекер - RUS-MEDIA.ORG


Вернуться к началу
 Профиль Отправить личное сообщение  
 
   Похожие торренты   Автор   Торрент   Размер 
В этой теме нет новых непрочитанных сообщений. Лёд [мелодрама, драма, спорт, 2018] WEB-DLRip-AVC [iTunes]

salma3

646 | 69

1.84 ГБ

В этой теме нет новых непрочитанных сообщений. Тренер [драма, спорт, 2018] WEB-DLRip [iTunes]

salma3

253 | 6

1.09 ГБ

В этой теме нет новых непрочитанных сообщений. Тренер [драма, спорт, 2018] WEB-DLRip [iTunes]

salma3

8738 | 235

1.46 ГБ

В этой теме нет новых непрочитанных сообщений. Эластико [Мелодрама, криминал, спорт, 2016] WEB-DLRip, [iTunes]

salma3

12757 | 2070

1.46 ГБ

В этой теме нет новых непрочитанных сообщений. Эластико (спорт, мелодрама, криминал, 2016) WEB-DLRip от Scarabey | iTunes

marya111

928 | 125

1.45 ГБ

В этой теме нет новых непрочитанных сообщений. Купи меня [Драма, мелодрама, 2018] WEB-DLRip [iTunes]

salma3

669 | 228

1.46 ГБ

В этой теме нет новых непрочитанных сообщений. Довлатов [Драма, мелодрама, биография, 2018] WEB-DLRip [iTunes]

salma3

973 | 272

1.46 ГБ


Начать новую тему Ответить на тему  [ 1 сообщение ] 




Для Мосгорсуда, Роскомнадзора и рекламодателей:: mosgorsud-torrent[собачка]yandex.ru
cron