Торрент файл
скачать торрент магнет ссылка Добавлен: 13 дек 2016, 20:04
Размер: 745.1 МБ
Сидеров: 659
Личеров: 57
Автор

СообщениеДобавлено: 13 дек 2016, 20:04 

Не в сети
Дата регистрации:
28 сен 2016, 18:10
Спасибо: 216 / 0
Сообщения: 1996
Информация о фильме
Название: Ночь святого Валентина
Год выпуска: 2016
Жанр: Комедия
Режиссер: Владимир Лерт
В ролях: Кирилл Кяро, Даша Астафьева, Олег Собчук, Виктор Андриенко, Елена Турбал, Андрей Джеджула, Наталия Денисенко, Валентина Войтенко, Константин Войтенко, Марк Дробот, Илья Прокопив, Роберт Фельдман, Екатерина Рубашкина
О фильме:
Все, что произошло в Ночь святого Валентина, теперь увидит вся страна! Пока все влюбленные пары мира одаривают друг друга нежными словами любви, наши герои принимают сюрпризы судьбы. Популярная рок-звезда отчаянно пытается дописать песню для фильма Гая Ричи и в творческих муках впервые за долгие годы встречает свою музу. Тем временем застенчивый гинеколог в перерывах между осмотром пациенток влюбляется в роковую красотку. Влюбленность ценой в собственную безопасность.
Ближе к полуночи город не спит. Студенты первого курса — тем более! В этот день они впервые устроили масштабную вечеринку, приуроченную к дню влюбленных. Их ночь могла быть идеальной, если бы на одном танцполе не повстречались ревнивый парень, завистливая бывшая и диджей, принявший удар безответной любви!

Страна: Украина
Студия: «Паноптикум, Tauras Films»
Продолжительность: 01:17:36
Перевод: Не требуется (русский)
Файл
Формат: avi
Качество: HDTVRip
Видео: XviD build 73, 720x304 (2.35:1), 25.000 fps, 1205 Kbps (0.220 bit/pixel)
Звук: 48.0 kHz, MP3 2 ch, 128 kbps
General
Complete name : Noch.Svjatogo.Valentina.2016.XviD.HDTVRip.GeneralFilm.avi
Format : AVI
Format/Info : Audio Video Interleave
File size : 745 MiB
Duration : 1h 17mn
Overall bit rate : 1 342 Kbps
Writing application : VirtualDubMod 1.5.10.3 | www.virtualdub-fr.org || (build 2550/release)
Writing library : VirtualDubMod build 2550/release
Video
ID : 0
Format : MPEG-4 Visual
Format profile : Advanced [email protected]
Format settings, BVOP : 1
Format settings, QPel : Yes
Format settings, GMC : No warppoints
Format settings, Matrix : Custom
Codec ID : XVID
Codec ID/Hint : XviD
Duration : 1h 17mn
Bit rate : 1 205 Kbps
Width : 720 pixels
Height : 304 pixels
Display aspect ratio : 2.35:1
Frame rate : 25.000 fps
Color space : YUV
Chroma subsampling : 4:2:0
Bit depth : 8 bits
Scan type : Progressive
Compression mode : Lossy
Bits/(Pixel*Frame) : 0.220
Stream size : 669 MiB (90%)
Writing library : XviD 73
Audio
ID : 1
Format : MPEG Audio
Format version : Version 1
Format profile : Layer 3
Codec ID : 55
Codec ID/Hint : MP3
Duration : 1h 17mn
Bit rate mode : Constant
Bit rate : 128 Kbps
Channel(s) : 2 channels
Sampling rate : 48.0 KHz
Compression mode : Lossy
Stream size : 71.0 MiB (10%)
Alignment : Aligned on interleaves
Interleave, duration : 40 ms (1.00 video frame)
Interleave, preload duratio : 504 ms
Writing library : LAME3.99r
Encoding settings : -m s -V 4 -q 0 -lowpass 17 -b 128





Релиз от:
Исходник:



Вернуться к началу
 Профиль Отправить личное сообщение  
 
   Похожие торренты   Автор   Торрент   Размер 
В этой теме нет новых непрочитанных сообщений. Ночь святого Валентина [Комедия, 2016] HDTV 1080i

salma3

3221 | 1218

4.18 ГБ

В этой теме нет новых непрочитанных сообщений. Все о дне святого Валентина / All Things Valentine [драма, мелодрама, комедия, 2016] HDTV 720p, Mvo

salma3

7 | 0

2.65 ГБ

В этой теме нет новых непрочитанных сообщений. Все о дне святого Валентина / All Things Valentine (Гари Харви / Gary Harvey) [2016г., драма, мелодрама, комедия, HDTVRip]mvo

Alfredovich

0 | 0

1.37 ГБ

В этой теме нет новых непрочитанных сообщений. Против всех правил (Комедия, 2016) HDTVRip от GeneralFilm

marya111

590 | 33

744.74 МБ

В этой теме нет новых непрочитанных сообщений. Лео и Тиг [01 из 05] ( Мультфильм, комедия, семейный, полнометражный, 2016) HDTVRip от Generalfilm

marya111

0 | 0

150.58 МБ

В этой теме нет новых непрочитанных сообщений. День Святого Валентина / Valentine [ужасы, триллер, 2001] WEB-DL 720p, Dub

salma3

20 | 0

3.23 ГБ

В этой теме нет новых непрочитанных сообщений. Поздравил убойную училку с Днём Святого Валентина / Brandi Love (Desperate For V-Day Dick) (2017) SiteRip

salma3

6 | 1

233.12 МБ


Начать новую тему Ответить на тему  [ 1 сообщение ] 




Для Мосгорсуда, Роскомнадзора и рекламодателей:: mosgorsud-torrent[собачка]yandex.ru
cron