Торрент файл
скачать торрент магнет ссылка Добавлен: 03 июл 2011, 18:31
Размер: 6.05 ГБ
Сидеров: 3
Личеров: 5
Автор

СообщениеДобавлено: 03 июл 2011, 18:31 

Не в сети
Супермодератор
Аватара пользователя
Дата регистрации:
14 июн 2010, 21:00
Возраст: 30
Спасибо: 1341 / 1
Сообщения: 5611
Откуда: НиНО
Полярный экспресс 3Д / The Polar Express 3D Год выпуска: 2004
Страна: США
Жанр: фэнтези, приключения, семейный, мультфильм
Продолжительность: 01:40:06
Перевод: Профессиональный (полное дублирование)
Русские субтитры: есть
Слоган: «Don't miss the holiday film of the season.»
Режиссер: Роберт Земекис / Robert Zemeckis
Роли озвучивали: Том Хэнкс, Майкл Джитер, Нона Гей, Питер Сколари, Эдди Дизен, Лесли Хартер Земекис, Чарльз Флайшер, Джош Эли, Марк Мендонка, Роландас Хендрикс...
Описание: Необыкновенная история о маленьком мальчике, который верит в Санта Клауса, несмотря на то, что все друзья и вся семья в один голос утверждают, что это всего лишь сказка. И однажды искренняя вера мальчика вознаграждается. В канун Рождества у его дома останавливается волшебный поезд "Полярный экспресс" и уносит мальчика в чудесное незабываемое путешествие в гости к Санта Клаусу. И пока Рождественская ночь опускается на спящий мир, пассажиры "Полярного экспресса" мчатся на Северный Полюс, встречая на своем пути приключения и опасности, подстерегающие их в темных лесах, зловещих горах и ледяной мгле...--Качество: BDrip
Формат: MKV
Формат 3D: Anaglyph / Анаглиф red'cyan
Видео кодек: x264
Аудио кодек: AC3, DTS
Видео: MPEG4 Video (H264) 1920x800 23.98fps 6332 Kbps
Аудио 1: Russian : Dolby AC3 48000Hz 5.1ch 640 kbps
Аудио 2: English : DTS 48000Hz 5.1ch 1510kbps
me
Format : Matroska
File size : 6.05 GiB
Duration : 1h 40mn
Overall bit rate : 8 654 Kbps
Encoded date : UTC 2010-12-25 15:21:36
Writing application : mkvmerge v2.9.7 ('Tenderness') built on Jul 1 2009 18:43:35
Writing library : libebml v0.7.7 + libmatroska v0.8.1
Video
ID : 1
Format : AVC
Format/Info : Advanced Video Codec
Format profile : [email protected]
Format settings, CABAC : Yes
Format settings, ReFrames : 4 frames
Muxing mode : Container [email protected]
Codec ID : V_MPEG4/ISO/AVC
Duration : 1h 40mn
Bit rate : 6 332 Kbps
Width : 1 920 pixels
Height : 800 pixels
Display aspect ratio : 2.40:1
Original display aspect ratio : 16:9
Frame rate : 23.976 fps
Color space : YUV
Chroma subsampling : 4:2:0
Bit depth : 8 bits
Scan type : Progressive
Bits/(Pixel*Frame) : 0.172
Stream size : 4.43 GiB (73%)
Writing library : x264 core 112 r1834 a51816a
Encoding settings : cabac=1 / ref=4 / deblock=1:-2:-2 / analyse=0x3:0x113 / me=umh / subme=7 / psy=1 / psy_rd=1.00:0.15 / mixed_ref=1 / me_range=16 / chroma_me=1 / trellis=2 / 8x8dct=1 / cqm=0 / deadzone=21,11 / fast_pskip=1 / chroma_qp_offset=-3 / threads=6 / sliced_threads=0 / nr=0 / decimate=1 / interlaced=0 / constrained_intra=0 / bframes=6 / b_pyramid=0 / b_adapt=2 / b_bias=0 / direct=3 / weightb=1 / open_gop=0 / weightp=2 / keyint=250 / keyint_min=23 / scenecut=40 / intra_refresh=0 / rc_lookahead=40 / rc=crf / mbtree=1 / crf=18.0 / qcomp=0.60 / qpmin=10 / qpmax=51 / qpstep=4 / ip_ratio=1.40 / aq=1:1.00
Language : English
Audio #1
ID : 2
Format : AC-3
Format/Info : Audio Coding 3
Mode extension : CM (complete main)
Codec ID : A_AC3
Duration : 1h 40mn
Bit rate mode : Constant
Bit rate : 640 Kbps
Channel(s) : 6 channels
Channel positions : Front: L C R, Side: L R, LFE
Sampling rate : 48.0 KHz
Bit depth : 16 bits
Stream size : 458 MiB (7%)
Title : Дубляж [ac3 6ch 640 kbps]
Language : Russian
Audio #2
ID : 3
Format : DTS
Format/Info : Digital Theater Systems
Codec ID : A_DTS
Duration : 1h 40mn
Bit rate mode : Constant
Bit rate : 1 510 Kbps
Channel(s) : 6 channels
Channel positions : Front: L C R, Side: L R, LFE
Sampling rate : 48.0 KHz
Bit depth : 24 bits
Stream size : 1.06 GiB (17%)
Language : English
Text #1
ID : 4
Format : UTF-8
Codec ID : S_TEXT/UTF8
Codec ID/Info : UTF-8 Plain Text
Language : Russian
Text #2
ID : 5
Format : UTF-8
Codec ID : S_TEXT/UTF8
Codec ID/Info : UTF-8 Plain Text
Language : English
Скриншоты



Вернуться к началу
 Профиль Отправить личное сообщение  
 
   Похожие торренты   Автор   Торрент   Размер 
В этой теме нет новых непрочитанных сообщений. Полярный экспресс / The Polar Express [Мультфильм, фэнтези, приключения, 2004] BDRip-AVC, Dub

salma3

83 | 15

746.26 МБ

В этой теме нет новых непрочитанных сообщений. Шанхайский экспресс / Экспресс миллионеров / Foo gwai lit che / Shanghai Express / Millionaires Express [Боевые искусства, комедия, вестерн, 1986] DVD5, Avo+Mvo

salma3

32 | 5

3.96 ГБ

В этой теме нет новых непрочитанных сообщений. Прогулка / The Walk (Роберт Земекис) [триллер, драма, приключения, биография, 2015] BDRip 1080p, Dub+Sub [3D-Video | iTunes]

Dracon

545 | 165

15.35 ГБ

В этой теме нет новых непрочитанных сообщений. Союзники / Allied (Роберт Земекис / Robert Zemeckis) [2016г., боевик, триллер, драма, мелодрама, военный, WEB-DLRip] MVO

Alfredovich

0 | 0

1.46 ГБ

В этой теме нет новых непрочитанных сообщений. Полярные приключения / Polar Adventure [Мультфильм, комедия, приключения, семейный, 2015] WEB-DLRip, dUB [iTunes]

salma3

217 | 74

1.46 ГБ

В этой теме нет новых непрочитанных сообщений. Полярные приключения / Polar Adventure [Мультфильм, комедия, приключения, семейный, 2015] WEB-DLRip, dUB [iTunes]

salma3

176 | 17

744.81 МБ

В этой теме нет новых непрочитанных сообщений. Приключения олененка Рудольфа / Rudolph, the Red-Nosed Reindeer [мультфильм, мюзикл, фэнтези, приключения, семейный, 1964] BDRip 1080p, Mvo

salma3

7 | 4

3.62 ГБ


Начать новую тему Ответить на тему  [ 1 сообщение ] 




Для Мосгорсуда, Роскомнадзора и рекламодателей:: mosgorsud-torrent[собачка]yandex.ru
cron