Торрент файл
скачать торрент магнет ссылка Добавлен: 03 июл 2011, 18:30
Размер: 1.68 ГБ
Сидеров: 1
Личеров: 4
Автор

СообщениеДобавлено: 03 июл 2011, 18:30 

Не в сети
Супермодератор
Аватара пользователя
Дата регистрации:
14 июн 2010, 21:00
Возраст: 29
Спасибо: 1341 / 1
Сообщения: 5611
Откуда: НиНО
Звёздный охотник: Легенда об Орине / Starchaser: The Legend of Orin 3d
Страна: Корея
Год выпуска: 1985 г.
Жанр: Фантастика, Мультфильм, фэнтези
Продолжительность: 01:40:14
Режиссер: Steven Hahn
Перевод: Профессиональный (полное дублирование)
Русские субтитры: нет
Описание: Глубоко под землей в Мире Шахты живут люди, никогда не видевшие солнечного света и не верящие в его существование. Под управлением надсмотрщиков-роботов жестокого повелителя Зайгона они, каждый день рискуя своей жизнью, добывают для него рубидимитовые кристаллы, получая взамен жалкие подачки еды. И только один из них, Орин, случайно обнаружив волшебную рукоятку от меча, решает бросить вызов Зайгону, найти дорогу во внешний мир и освободить своих соплеменников.
Дополнительная информация: Исходник VHS переизданный на 3дDVD и восстановленный мною в стереопару. Качество картинки - пристойное, качество 3д - в стиле 80-х, глазовыворачивающее.
Качество: VHSRip
Формат видео: MKV
Формат 3D: OverUnder / Вертикальная стереопара
Видео: MPEG4 Video (H264) 688x544 29.97fps 1900 kbps
Аудио: Dolby AC3 48000Hz stereo 192 Kbps Язык Русский (в составе контейнера) ; Озвучка: многоголосая
Аудио 2: Dolby AC3 48000Hz stereo 256 Kbps Язык Английский
Подробные тех. данные
Format : Matroska
File size : 1.68 GiB
Duration : 2h 0mn
Overall bit rate : 1 997 Kbps
Encoded date : UTC 2011-01-19 10:41:00
Writing application : mkvmerge v2.9.7 ('Tenderness') built on Jul 1 2009 18:43:35
Writing library : libebml v0.7.7 + libmatroska v0.8.1
Video
ID : 1
Format : AVC
Format/Info : Advanced Video Codec
Format profile : [email protected]
Format settings, CABAC : Yes
Format settings, ReFrames : 4 frames
Muxing mode : Container [email protected]
Codec ID : V_MPEG4/ISO/AVC
Duration : 2h 0mn
Bit rate : 1 509 Kbps
Nominal bit rate : 1 900 Kbps
Width : 688 pixels
Height : 544 pixels
Display aspect ratio : 5:4
Frame rate : 29.970 fps
Color space : YUV
Chroma subsampling : 4:2:0
Bit depth : 8 bits
Scan type : Progressive
Bits/(Pixel*Frame) : 0.135
Stream size : 1.27 GiB (76%)
Writing library : x264 core 112 r1867 22bfd31
Encoding settings : cabac=1 / ref=4 / deblock=1:-2:-2 / analyse=0x3:0x113 / me=umh / subme=7 / psy=1 / psy_rd=1.00:0.15 / mixed_ref=1 / me_range=16 / chroma_me=1 / trellis=2 / 8x8dct=1 / cqm=0 / deadzone=21,11 / fast_pskip=1 / chroma_qp_offset=-3 / threads=6 / sliced_threads=0 / nr=0 / decimate=1 / interlaced=0 / constrained_intra=0 / bframes=6 / b_pyramid=0 / b_adapt=2 / b_bias=0 / direct=3 / weightb=1 / open_gop=0 / weightp=2 / keyint=250 / keyint_min=25 / scenecut=40 / intra_refresh=0 / rc_lookahead=40 / rc=2pass / mbtree=1 / bitrate=1900 / ratetol=1.0 / qcomp=0.60 / qpmin=10 / qpmax=51 / qpstep=4 / cplxblur=20.0 / qblur=0.5 / ip_ratio=1.40 / aq=1:1.00
Language : English
Audio #1
ID : 2
Format : AC-3
Format/Info : Audio Coding 3
Mode extension : CM (complete main)
Codec ID : A_AC3
Duration : 2h 0mn
Bit rate mode : Constant
Bit rate : 192 Kbps
Channel(s) : 2 channels
Channel positions : Front: L R
Sampling rate : 48.0 KHz
Bit depth : 16 bits
Stream size : 166 MiB (10%)
Language : Russian
Audio #2
ID : 3
Format : AC-3
Format/Info : Audio Coding 3
Mode extension : CM (complete main)
Codec ID : A_AC3
Duration : 2h 0mn
Bit rate mode : Constant
Bit rate : 256 Kbps
Channel(s) : 2 channels
Channel positions : Front: L R
Sampling rate : 48.0 KHz
Bit depth : 16 bits
Stream size : 221 MiB (13%)
Language : English
Скриншоты



Вернуться к началу
 Профиль Отправить личное сообщение  
 
   Похожие торренты   Автор   Торрент   Размер 
В этой теме нет новых непрочитанных сообщений. Легенда о Билли Джин / The Legend of Billie Jean [Боевик, драма, 1985] BDRip 1080p, Dvo

salma3

35 | 2

9.23 ГБ

В этой теме нет новых непрочитанных сообщений. Первому игроку приготовиться / Ready Player One (Стивен Спилберг / Steven Spielberg) [2018г., фантастика, боевик, TS] Dub

Alfredovich

583 | 18

1.37 ГБ

В этой теме нет новых непрочитанных сообщений. Динозавр: Тайна затерянного мира / Baby: Secret of the Lost Legend [фантастика, приключения, семейный, 1985] SATRip, Dvo

salma3

27 | 34

1.46 ГБ

В этой теме нет новых непрочитанных сообщений. Динозавр: Тайна затерянного мира / Baby: Secret of the Lost Legend [Фантастика, приключения, семейный, 1985] BDRemux 1080p, Mvo

salma3

0 | 0

15.81 ГБ

В этой теме нет новых непрочитанных сообщений. Звёздный десант: Предатель Марса / Starship Troopers: Traitor of Mars [Мультфильм, фантастика, боевик, 2017] BDRip-AVC, Mvo [Лицензия]

salma3

52 | 4

2.18 ГБ

В этой теме нет новых непрочитанных сообщений. Звёздный десант: Предатель Марса / Starship Troopers: Traitor of Mars [мультфильм, фантастика, боевик, 2017] BDRip, Mvo [Лицензия]

salma3

1 | 49

1.46 ГБ

В этой теме нет новых непрочитанных сообщений. Звёздный десант: Предатель Марса / Starship Troopers: Traitor of Mars [мультфильм, фантастика, боевик, 2017] WEB-DLRip, Mvo [Line]

salma3

2021 | 359

1.37 ГБ


Начать новую тему Ответить на тему  [ 1 сообщение ] 




Для Мосгорсуда, Роскомнадзора и рекламодателей:: mosgorsud-torrent[собачка]yandex.ru
cron