Торрент файл
скачать торрент магнет ссылка Добавлен: 03 июл 2011, 18:14
Размер: 5.33 ГБ
Сидеров: 20
Личеров: 9
Автор

СообщениеДобавлено: 03 июл 2011, 18:14 

Не в сети
Супермодератор
Аватара пользователя
Дата регистрации:
14 июн 2010, 21:00
Возраст: 30
Спасибо: 1341 / 1
Сообщения: 5611
Откуда: НиНО
Шрек навсегда / Шрек 4 в 3Д /
Shrek Forever After 3D
Слоган «Последняя глава»
Год выпуска: 2010
Страна: США
Жанр: фэнтези, комедия, приключения, семейный, мультфильм
Продолжительность: 01:33:10
Перевод: Профессиональный (дублированный)
Русские субтитры: нет
Режиссёр: Майк Митчел / Mike Mitchell
Роли озвучивали: Майк Майерс, Эдди Мёрфи, Кэмерон Диаз, Антонио Бандерас, Джули Эндрюс, Джон Хэмм, Джон Клиз, Крэйг Робинсон, Уолт Дорн, Джейн Линч
Роли дублировали: Алексей Колган, Вадим Андреев, Жанна Никонова, Любовь Германова, Всеволод Кузнецов
Описание: Чем бы еще заняться огру, который уже сразился со злым драконом, спас прекрасную принцессу и уберег от беды королевство родственников по линии жены? Что ж, если вы Шрек, то, сами того не заметив, вы вдруг сядете дома и станете наслаждаться покоем в кругу семьи. Вместо того чтобы как раньше пугать деревенских жителей, теперь Шрек, хоть и с неохотой, но соглашается оставлять автографы на их вилах. А куда же подевался знаменитый рык этого огра?
Под грузом воспоминаний о днях, когда он чувствовал себя «настоящим огром», Шрэк поддается на уговоры сладкоголосого Румпельштильцхена и заключает с ним договор. Сразу после этого Шрек оказывается в альтернативной реальности Тридевятого королевства, где все поставлено с ног на голову: на огров здесь охотятся, Румпельштильцхен восседает на троне, а Шрек и Фиона даже не знакомы. И теперь только сам Шрэк может исправить все, что он натворил, чтобы спасти друзей, восстановить привычный ему порядок вещей и вернуть себе свою единственную Истинную Любовь.-Бюджет: $165 000 000
Сборы в России: $51 395 417
Сборы в США: $238 395 990
Сборы в мире: $737 913 938--Качество: BDrip
Формат: MKV
Формат 3D: Half SideBySide / Горизонтальная анаморфная стереопара
Видео кодек: x264
Аудио кодек: AC3, DTS
Видео: MPEG4 Video (H264) 1920x1080 23.98fps 5869 Kbps
Аудио 1: Russian : Dolby AC3 48000Hz 5.1ch 640 kbps
Аудио 2: English : DTS 48000Hz 5.1ch 1510kbps
me
Format : Matroska
File size : 5.33 GiB
Duration : 1h 33mn
Overall bit rate : 8 181 Kbps
Encoded date : UTC 2010-12-24 03:02:49
Writing application : mkvmerge v2.9.7 ('Tenderness') built on Jul 1 2009 18:43:35
Writing library : libebml v0.7.7 + libmatroska v0.8.1
Video
ID : 1
Format : AVC
Format/Info : Advanced Video Codec
Format profile : [email protected]
Format settings, CABAC : Yes
Format settings, ReFrames : 4 frames
Muxing mode : Container [email protected]
Codec ID : V_MPEG4/ISO/AVC
Duration : 1h 33mn
Bit rate : 5 869 Kbps
Width : 1 920 pixels
Height : 1 080 pixels
Display aspect ratio : 16:9
Frame rate : 23.976 fps
Color space : YUV
Chroma subsampling : 4:2:0
Bit depth : 8 bits
Scan type : Progressive
Bits/(Pixel*Frame) : 0.118
Stream size : 3.82 GiB (72%)
Writing library : x264 core 110 r1820 fdcf2ae
Encoding settings : cabac=1 / ref=4 / deblock=1:-2:-2 / analyse=0x3:0x113 / me=umh / subme=7 / psy=1 / psy_rd=1.00:0.15 / mixed_ref=1 / me_range=16 / chroma_me=1 / trellis=2 / 8x8dct=1 / cqm=0 / deadzone=21,11 / fast_pskip=1 / chroma_qp_offset=-3 / threads=6 / sliced_threads=0 / nr=0 / decimate=1 / interlaced=0 / constrained_intra=0 / bframes=6 / b_pyramid=0 / b_adapt=2 / b_bias=0 / direct=3 / weightb=1 / open_gop=0 / weightp=2 / keyint=250 / keyint_min=23 / scenecut=40 / intra_refresh=0 / rc_lookahead=40 / rc=crf / mbtree=1 / crf=18.0 / qcomp=0.60 / qpmin=10 / qpmax=51 / qpstep=4 / ip_ratio=1.40 / aq=1:1.00
Language : English
Audio #1
ID : 2
Format : AC-3
Format/Info : Audio Coding 3
Mode extension : CM (complete main)
Codec ID : A_AC3
Duration : 1h 33mn
Bit rate mode : Constant
Bit rate : 640 Kbps
Channel(s) : 6 channels
Channel positions : Front: L C R, Side: L R, LFE
Sampling rate : 48.0 KHz
Bit depth : 16 bits
Video delay : 24ms
Stream size : 427 MiB (8%)
Title : Дубляж
Language : Russian
Audio #2
ID : 3
Format : DTS
Format/Info : Digital Theater Systems
Codec ID : A_DTS
Duration : 1h 33mn
Bit rate mode : Constant
Bit rate : 1 510 Kbps
Channel(s) : 6 channels
Channel positions : Front: L C R, Side: L R, LFE
Sampling rate : 48.0 KHz
Bit depth : 24 bits
Video delay : 24ms
Stream size : 1 007 MiB (18%)
Title : DTS 5.1
Language : English
Скриншоты



Вернуться к началу
 Профиль Отправить личное сообщение  
 
   Похожие торренты   Автор   Торрент   Размер 
В этой теме нет новых непрочитанных сообщений. Шрек: Квадрология / Shrek: Quadrilogy [мультфильм, фэнтези, комедия, 2001-2010] BDRip-HEVC 1080p, Dub

salma3

10 | 2

14.26 ГБ

В этой теме нет новых непрочитанных сообщений. Бэтмен навсегда / Batman Forever [фэнтези, боевик, 1995] BDRip 1080p, Dub

salma3

13 | 6

8.6 ГБ

В этой теме нет новых непрочитанных сообщений. Нина навсегда / Nina Forever [ужасы, мелодрама, комедия, 2015] BDRip 1080p, Dub [чистый звук]

salma3

214 | 68

8.24 ГБ

В этой теме нет новых непрочитанных сообщений. Аисты / Storks [мультфильм, фэнтези, комедия, приключения, семейный, 2016] BDRip-AVC, Dub [Лицензия]

salma3

376 | 111

2.18 ГБ

В этой теме нет новых непрочитанных сообщений. Аисты / Storks ( мультфильм, фэнтези, комедия, приключения, семейный, 2016) BDRip от HQCLUB | D | Лицензия

marya111

157 | 16

1.45 ГБ

В этой теме нет новых непрочитанных сообщений. Аисты / Storks [мультфильм, фэнтези, комедия, приключения, семейный, 2016] BDRip 1080p, Dub [Лицензия]

salma3

59 | 14

8.86 ГБ

В этой теме нет новых непрочитанных сообщений. Аисты / Storks (мультфильм, фэнтези, комедия, семейный, приключения, 2016) BDRip 720p от Scarabey | iTunes

marya111

605 | 86

3.06 ГБ


Начать новую тему Ответить на тему  [ 1 сообщение ] 




Для Мосгорсуда, Роскомнадзора и рекламодателей:: mosgorsud-torrent[собачка]yandex.ru
cron