Торрент файл
скачать торрент магнет ссылка Добавлен: 03 июл 2011, 18:10
Размер: 4.68 ГБ
Сидеров: 15
Личеров: 6
Автор

СообщениеДобавлено: 03 июл 2011, 18:10 

Не в сети
Супермодератор
Аватара пользователя
Дата регистрации:
14 июн 2010, 21:00
Возраст: 30
Спасибо: 1341 / 1
Сообщения: 5611
Откуда: НиНО
Облачно, возможны осадки в виде фрикаделек 3Д / Cloudy with a Chance of Meatballs 3D
Год выпуска: 2009
Страна: США
Студия: Sony Pictures Animation
Жанр: Мультфильм, Комедия, Семейный
Продолжительность: 01:29:52
Перевод: Профессиональный (дублированный)
Русские субтитры: нет
Режиссеры: Фил Лорд, Крис Миллер / Phil Lord, Chris Miller
Роли озвучивали:
Flint Lockwood - Александр Пушной / Bill Hader
Sam Sparks - Ксения Бржезовская / Anna Faris
Tim Lockwood - Михаил Шац / James Caan
Cal Devereaux - Иван Чабан / Bobb'e J. Thompson
Fran Lockwood - Татьяна Лазарева / Lauren Graham
......
Описание: Главный герой мультфильма — странный ученый Флинт Локвуд, который всегда хотел изобрести что-то такое, что сделает его родной городок счастливым. И вот, у него получилось! Еды теперь хватает всем, и она просто падает с неба, создавая новые пейзажи вокруг: можно любоваться закатом с живописных холмов из фруктового желе. Но иногда вкусные осадки в виде фрикаделек могут превратиться в настоящий торнадо из аппетитных, но уже опасных спагетти! Гениальному ученому и его друзьям предстоит исправить положение дел в сытом городке.Качество: BDrip
Контейнер: MKV
Формат 3D: Half OverUnder / Вертикальная анаморфная стереопара
Порядок ракурсов: левый ракурс первый
Видео кодек: x264
Аудио кодек: AC3
Видео: AVC / 1920х1080p / 23,976 fps / 5 772 Kbps
Аудио#1: Русский / AC3 / 5.1 ch / 448 Kbps / 48 KHz
Аудио#2: Украинский / AC3 / 5.1 ch / 448 kbps / 48 KHz
Аудио#3: Английский / AC3 / 5.1 ch / 640 kbps / 48 KHz
Субтитры: Отсутствуют
MediaInfo
General
Unique ID : 213254668990421898217229834429599341272 (0xA06F5AF38EEA57768E66615FF3705AD8)
Complete name : F:\Downloads\CloudyWithAChanceOfMeatballs3D.halfOU.AC3.ash61.mkv
Format : Matroska
File size : 4.68 GiB
Duration : 1h 29mn
Overall bit rate : 7 457 Kbps
Encoded date : UTC 2011-06-30 07:38:49
Writing application : mkvmerge v3.4.0 ('Rapunzel') сборка от May 15 2010 09:38:20
Writing library : libebml v0.8.0 + libmatroska v0.9.0
Video
ID : 1
Format : AVC
Format/Info : Advanced Video Codec
Format profile : [email protected]
Format settings, CABAC : Yes
Format settings, ReFrames : 4 frames
Format settings, GOP : M=1, N=16
Codec ID : V_MPEG4/ISO/AVC
Duration : 1h 29mn
Bit rate : 5 772 Kbps
Width : 1 920 pixels
Height : 1 080 pixels
Display aspect ratio : 16:9
Frame rate : 23.976 fps
Color space : YUV
Chroma subsampling : 4:2:0
Bit depth : 8 bits
Scan type : Progressive
Bits/(Pixel*Frame) : 0.116
Stream size : 3.62 GiB (77%)
Title : Rip by Ash61
Writing library : x264 core 113 r1884 7313bb5
Encoding settings : cabac=1 / ref=4 / deblock=1:-1:-1 / analyse=0x3:0x113 / me=umh / subme=9 / psy=1 / psy_rd=1.00:0.15 / mixed_ref=1 / me_range=16 / chroma_me=1 / trellis=2 / 8x8dct=1 / cqm=0 / deadzone=21,11 / fast_pskip=1 / chroma_qp_offset=-3 / threads=3 / sliced_threads=0 / nr=0 / decimate=1 / interlaced=0 / constrained_intra=0 / bframes=6 / b_pyramid=2 / b_adapt=2 / b_bias=0 / direct=3 / weightb=1 / open_gop=0 / weightp=2 / keyint=250 / keyint_min=23 / scenecut=40 / intra_refresh=0 / rc_lookahead=60 / rc=crf / mbtree=1 / crf=18.0 / qcomp=0.60 / qpmin=0 / qpmax=69 / qpstep=4 / ip_ratio=1.40 / aq=1:1.00
Audio #1
ID : 2
Format : AC-3
Format/Info : Audio Coding 3
Mode extension : CM (complete main)
Codec ID : A_AC3
Duration : 1h 29mn
Bit rate mode : Constant
Bit rate : 448 Kbps
Channel(s) : 6 channels
Channel positions : Front: L C R, Side: L R, LFE
Sampling rate : 48.0 KHz
Bit depth : 16 bits
Compression mode : Lossy
Stream size : 288 MiB (6%)
Language : Russian
Audio #2
ID : 3
Format : AC-3
Format/Info : Audio Coding 3
Mode extension : CM (complete main)
Codec ID : A_AC3
Duration : 1h 29mn
Bit rate mode : Constant
Bit rate : 448 Kbps
Channel(s) : 6 channels
Channel positions : Front: L C R, Side: L R, LFE
Sampling rate : 48.0 KHz
Bit depth : 16 bits
Compression mode : Lossy
Stream size : 288 MiB (6%)
Language : Ukrainian
Audio #3
ID : 4
Format : AC-3
Format/Info : Audio Coding 3
Mode extension : CM (complete main)
Codec ID : A_AC3
Duration : 1h 29mn
Bit rate mode : Constant
Bit rate : 640 Kbps
Channel(s) : 6 channels
Channel positions : Front: L C R, Side: L R, LFE
Sampling rate : 48.0 KHz
Bit depth : 16 bits
Compression mode : Lossy
Stream size : 411 MiB (9%)
Language : English
Menu
00:00:00.000 : :01
00:04:47.621 : :02
00:08:56.578 : :03
00:14:33.164 : :04
00:20:30.229 : :05
00:24:25.589 : :06
00:30:43.175 : :07
00:36:29.604 : :08
00:42:50.109 : :09
00:46:36.794 : :10
00:52:43.827 : :11
00:55:07.429 : :12
01:00:42.764 : :13
01:05:43.398 : :14
01:13:03.754 : :15
01:17:45.369 : :16
Скриншоты

Лог кодирования



Вернуться к началу
 Профиль Отправить личное сообщение  
 
   Похожие торренты   Автор   Торрент   Размер 
В этой теме нет новых непрочитанных сообщений. Бруклин 9-9 / Brooklyn Nine-Nine [S03] (Фил Лорд, Крис Миллер, Джейсон Энслер) [2015, Комедия, WEB-DL 720p | NewStudio]

Dracon

85 | 107

16.51 ГБ

В этой теме нет новых непрочитанных сообщений. Трусонюх 2: Осадки в виде труселей / Извратная маска 2 (пародия, комедия, боевик, 2016) HDRip | L2

marya111

64 | 0

1.45 ГБ

В этой теме нет новых непрочитанных сообщений. Лорд Вор / The Thief Lord [фэнтези, приключения, семейный, 2006] DVD5, Mvo

salma3

16 | 7

4.25 ГБ

В этой теме нет новых непрочитанных сообщений. Тайная жизнь домашних животных / The Secret Life of Pets (Ярроу Чейни , Крис Рено) [2016, мультфильм, комедия, семейный, BDRip | Line] Dub

marya111

0 | 0

1.41 ГБ

В этой теме нет новых непрочитанных сообщений. Последний человек на Земле / The Last Man on Earth [02х01-17 из 13] (Фил Лорд , Кристофер Миллер) [2015, Комедия, фантастика, WEB-DLRip | BaibaKo]

Nickolas3435

7 | 11

5.03 ГБ

В этой теме нет новых непрочитанных сообщений. Тайная жизнь домашних животных / The Secret Life of Pets (Ярроу Чейни, Крис Рено) [2016, мультфильм, комедия, приключения, семейный, BDRip 720p | iTunes]

marya111

298 | 32

4.21 ГБ

В этой теме нет новых непрочитанных сообщений. Последний человек на Земле / The Last Man on Earth [02x01-10] (Фил Лорд, Кристофер Миллер) [2015, Фантастика, комедия, драма, HDTVRip 720p | Jaskier]

Dracon

70 | 210

6.82 ГБ


Начать новую тему Ответить на тему  [ 1 сообщение ] 




Для Мосгорсуда, Роскомнадзора и рекламодателей:: mosgorsud-torrent[собачка]yandex.ru
cron