Торрент файл
скачать торрент магнет ссылка Добавлен: 03 июл 2011, 18:10
Размер: 4.4 ГБ
Сидеров: 6
Личеров: 6
Автор

СообщениеДобавлено: 03 июл 2011, 18:10 

Не в сети
Супермодератор
Аватара пользователя
Дата регистрации:
14 июн 2010, 21:00
Возраст: 29
Спасибо: 1341 / 1
Сообщения: 5611
Откуда: НиНО
Bольт 3Д / Вolt 3D
Год выпуска: 2008
Страна: США
Студия: Walt Disney Pictures
Жанр: Мультфильм, Комедия, Приключения, Семейный
Продолжительность: 01:36:20
Перевод: Профессиональный (дублированный)
Русские субтитры: нет
Режиссеры: Байрон Ховард, Крис Уильямс / Byron Howard, Chris Williams
Роли озвучивали:
Bolt - Владимир Вдовиченков / John Travolta
Penny - Маша Иващенко / Miley Cyrus
Mittens - Анжела Белянская / Susie Essman
Rhino - Леонид Барац / Mark Walton
Dr. Calico - Владимир Майсурадзе / Malcolm McDowell
The Director - Александр Стефанцов / James Lipton
Blake - Ростислав Хаит / Nick Swardson
Tom - Камиль Ларин / Jean-Paul Manoux
Billy - Александр Демидов / Dan Fogelman
Описание: Пес по кличке «Вольт» всю жизнь снимается в телевизионном сериале, где его герой — суперпес — спасает человечество, используя свои необычайные способности. Сам Вольт свято верит в собственную неуязвимость, невероятную силу, и умение летать. Когда же судьба забрасывает его в полный опасностей Большой Город, он все еще думает, что это — лишь очередной эпизод телесериала…Качество: BDrip
Контейнер: MKV
Формат 3D: Half OverUnder / Вертикальная анаморфная стереопара
Порядок ракурсов: левый ракурс первый
Видео кодек: x264
Аудио кодек: AC3
Видео: AVC / 1920х1080p / 23,976 fps / 4 485 Kbps
Аудио#1: Русский / AC3 / 5.1 ch / 640 Kbps / 48 KHz
Аудио#2: Украинский / AC3 / 5.1 ch / 640 kbps / 48 KHz
Аудио#3: Английский / AC3 / 5.1 ch / 640 kbps / 48 KHz
Субтитры: Отсутствуют
MediaInfo
General
Unique ID : 202288708508055391649163354102336501669 (0x982F635B5ABE1EB2A1BC59FE2442B7A5)
Complete name : F:\Downloads\Bolt3D.halfOU.AC3.ash61.mkv
Format : Matroska
File size : 4.40 GiB
Duration : 1h 36mn
Overall bit rate : 6 535 Kbps
Encoded date : UTC 2011-07-01 13:43:40
Writing application : mkvmerge v3.4.0 ('Rapunzel') сборка от May 15 2010 09:38:20
Writing library : libebml v0.8.0 + libmatroska v0.9.0
Video
ID : 1
Format : AVC
Format/Info : Advanced Video Codec
Format profile : [email protected]
Format settings, CABAC : Yes
Format settings, ReFrames : 4 frames
Codec ID : V_MPEG4/ISO/AVC
Duration : 1h 36mn
Bit rate : 4 485 Kbps
Width : 1 920 pixels
Height : 1 080 pixels
Display aspect ratio : 16:9
Frame rate : 23.976 fps
Color space : YUV
Chroma subsampling : 4:2:0
Bit depth : 8 bits
Scan type : Progressive
Bits/(Pixel*Frame) : 0.090
Stream size : 3.02 GiB (69%)
Title : Rip by Ash61
Writing library : x264 core 113 r1884 7313bb5
Encoding settings : cabac=1 / ref=4 / deblock=1:-1:-1 / analyse=0x3:0x113 / me=umh / subme=10 / psy=1 / psy_rd=1.00:0.15 / mixed_ref=1 / me_range=16 / chroma_me=1 / trellis=2 / 8x8dct=1 / cqm=0 / deadzone=21,11 / fast_pskip=1 / chroma_qp_offset=-3 / threads=3 / sliced_threads=0 / nr=0 / decimate=1 / interlaced=0 / constrained_intra=0 / bframes=6 / b_pyramid=2 / b_adapt=2 / b_bias=0 / direct=3 / weightb=1 / open_gop=0 / weightp=2 / keyint=250 / keyint_min=23 / scenecut=40 / intra_refresh=0 / rc_lookahead=60 / rc=crf / mbtree=1 / crf=18.0 / qcomp=0.60 / qpmin=0 / qpmax=51 / qpstep=4 / ip_ratio=1.40 / aq=1:1.00
Audio #1
ID : 2
Format : AC-3
Format/Info : Audio Coding 3
Mode extension : CM (complete main)
Codec ID : A_AC3
Duration : 1h 36mn
Bit rate mode : Constant
Bit rate : 640 Kbps
Channel(s) : 6 channels
Channel positions : Front: L C R, Side: L R, LFE
Sampling rate : 48.0 KHz
Bit depth : 16 bits
Compression mode : Lossy
Stream size : 441 MiB (10%)
Language : Russian
Audio #2
ID : 3
Format : AC-3
Format/Info : Audio Coding 3
Mode extension : CM (complete main)
Codec ID : A_AC3
Duration : 1h 36mn
Bit rate mode : Constant
Bit rate : 640 Kbps
Channel(s) : 6 channels
Channel positions : Front: L C R, Side: L R, LFE
Sampling rate : 48.0 KHz
Bit depth : 16 bits
Compression mode : Lossy
Stream size : 441 MiB (10%)
Language : Ukrainian
Audio #3
ID : 4
Format : AC-3
Format/Info : Audio Coding 3
Mode extension : CM (complete main)
Codec ID : A_AC3
Duration : 1h 36mn
Bit rate mode : Constant
Bit rate : 640 Kbps
Channel(s) : 6 channels
Channel positions : Front: L C R, Side: L R, LFE
Sampling rate : 48.0 KHz
Bit depth : 16 bits
Compression mode : Lossy
Stream size : 441 MiB (10%)
Language : English
Menu
00:00:00.000 : :01
00:02:32.611 : :02
00:11:01.661 : :03
00:13:48.202 : :04
00:19:20.951 : :05
00:24:19.750 : :06
00:27:15.384 : :07
00:29:49.705 : :08
00:35:26.833 : :09
00:42:10.570 : :10
00:51:42.975 : :11
01:01:59.341 : :12
01:08:17.093 : :13
01:13:03.671 : :14
01:18:54.063 : :15
01:29:38.582 : :16
Скриншоты

Лог кодирования



Вернуться к началу
 Профиль Отправить личное сообщение  
 
   Похожие торренты   Автор   Торрент   Размер 
В этой теме нет новых непрочитанных сообщений. Зверополис / Zootopia (Байрон Ховард, Рич Мур, Джаред Буш) [2016, мультфильм, боевик, комедия, криминал, приключения, семейный, BDRip 720p | Лицензия] Dub

marya111

342 | 11

3.32 ГБ

В этой теме нет новых непрочитанных сообщений. Зверополис / Zootopia (Байрон Ховард, Рич Мур, Джаред Буш) [2016, мультфильм, боевик, комедия, криминал, приключения, семейный, HDRip | Лицензия] Dub

marya111

2173 | 80

1.45 ГБ

В этой теме нет новых непрочитанных сообщений. Зверополис / Zootopia [2D/3D] [USA Transfer] (Байрон Ховард, Рич Мур, Джаред Буш) [2016, мультфильм, боевик, комедия, криминал, приключения, семейный, BD Remux 2D/3D 1080p] DUB [iTunes]

marya111

17 | 6

32.5 ГБ

В этой теме нет новых непрочитанных сообщений. Тайная жизнь домашних животных / The Secret Life of Pets (Ярроу Чейни, Крис Рено) [2016, мультфильм, комедия, приключения, семейный, BDRip 720p | iTunes]

marya111

298 | 32

4.21 ГБ

В этой теме нет новых непрочитанных сообщений. Тайная жизнь домашних животных / The Secret Life of Pets (Ярроу Чейни , Крис Рено) [2016, мультфильм, комедия, семейный, BDRip | Line] Dub

marya111

0 | 0

1.41 ГБ

В этой теме нет новых непрочитанных сообщений. Кунг-фу Панда:Трилогия / Kung Fu Panda:Trilogy (Марк Осборн, Джон Стивенсон,Алессандро Карлони, Дженнифер Ю) [2008-2016, Мультфильм, боевик, комедия, приключения, семейный , BDRip 1080p] [DD5.1] [Dub Rus , Ukr , Eng]+[Sub Rus , Ukr , Eng][

Враг Нароода

3 | 7

27.41 ГБ

В этой теме нет новых непрочитанных сообщений. Приключения Флика / A Bug's Life [Мультфильм, комедия, приключения, семейный, 1998] BDRip 720p, Dub [60 fps]

salma3

0 | 1

5.6 ГБ


Начать новую тему Ответить на тему  [ 1 сообщение ] 




Для Мосгорсуда, Роскомнадзора и рекламодателей:: mosgorsud-torrent[собачка]yandex.ru
cron