Торрент файл
скачать торрент магнет ссылка Добавлен: 23 май 2011, 20:59
Размер: 5.88 ГБ
Сидеров: 13
Личеров: 7
Автор

СообщениеДобавлено: 23 май 2011, 20:59 

Не в сети
Супермодератор
Аватара пользователя
Дата регистрации:
14 июн 2010, 21:00
Возраст: 29
Спасибо: 1341 / 1
Сообщения: 5611
Откуда: НиНО
Мартышки в космосе: Ответный удар 3Д / Space Chimps 2: Zartog Strikes Back 3DСтрана: США / Prana Studios, Vanguard
слоган «Полный улёт»
Жанр: Фантастика, комедия, приключения, семейный, мультфильм
Продолжительность: 01:15:45
Год выпуска: 2010
Перевод: Профессиональный (дублированный)
Русские субтитры: нет
Режиссёр: Джон Х. Уильямс / John H. Williams
Роли озвучивали: Том Кенни, Зак Шэда, Патрик Варбертон, Шерил Хайнс, Карлос Алазраки, Лора Бэйли, Джон Ди Маджио, Стенли Туччи, Патрик Брин, Джейн Линч
Роли дублировали: Лиза Мартиросова, Вероника Саркисова, Дмитрий Курта
Описание: Продолжение анимационной комедии 2008 года о космических приключениях мартышек. На этот раз к звездолетной обезьяньей команде, состоящей из Хэма, Луны и Титана, присоединяется новичок Комет, мечтающий стать настоящим космическим шимпанзе. Он отправляется на планету Мангор, где знакомится с инопланетянином Киловаттом. Когда злодей Зартог пытается захватить власть, наступает время для Комета проявить себя. Разумеется, не без помощи новых друзей.--Качество: BDrip
Формат: MKV
Формат 3D: Half SideBySide / Горизонтальная анаморфная стереопара
Порядок ракурсов: Параллельная пара
Видео кодек: x264
Аудио кодек: DTS
Видео: MPEG4 Video (H264) 1920x1080p 23.98fps 7865 Kbps
Аудио 1: Russian : DTS 48000Hz 5.1ch 1510 kbps
Аудио 2: English: DTS 48000Hz 5.1ch 1510 kbps
me
Format : Matroska
File size : 5.88 GiB
Duration : 1h 15mn
Overall bit rate : 11.1 Mbps
Encoded date : UTC 2011-05-07 12:23:23
Writing application : mkvmerge v2.9.7 ('Tenderness') built on Jul 1 2009 18:43:35
Writing library : libebml v0.7.7 + libmatroska v0.8.1
Video
ID : 1
Format : AVC
Format/Info : Advanced Video Codec
Format profile : [email protected]
Format settings, CABAC : Yes
Format settings, ReFrames : 4 frames
Muxing mode : Container [email protected]
Codec ID : V_MPEG4/ISO/AVC
Duration : 1h 15mn
Bit rate : 7 865 Kbps
Width : 1 920 pixels
Height : 1 080 pixels
Display aspect ratio : 16:9
Frame rate : 23.976 fps
Color space : YUV
Chroma subsampling : 4:2:0
Bit depth : 8 bits
Scan type : Progressive
Bits/(Pixel*Frame) : 0.158
Stream size : 4.16 GiB (71%)
Writing library : x264 core 115 r1947 b5a8ad7
Encoding settings : cabac=1 / ref=4 / deblock=1:-1:-1 / analyse=0x3:0x113 / me=umh / subme=9 / psy=1 / psy_rd=1.00:0.15 / mixed_ref=1 / me_range=16 / chroma_me=1 / trellis=1 / 8x8dct=1 / cqm=0 / deadzone=21,11 / fast_pskip=1 / chroma_qp_offset=-3 / threads=18 / sliced_threads=0 / nr=0 / decimate=1 / interlaced=0 / bluray_compat=0 / constrained_intra=0 / bframes=3 / b_pyramid=2 / b_adapt=1 / b_bias=0 / direct=3 / weightb=1 / open_gop=0 / weightp=2 / keyint=250 / keyint_min=23 / scenecut=40 / intra_refresh=0 / rc_lookahead=40 / rc=crf / mbtree=1 / crf=18.0 / qcomp=0.60 / qpmin=10 / qpmax=69 / qpstep=4 / ip_ratio=1.40 / aq=1:1.00
Language : English
Audio #1
ID : 2
Format : DTS
Format/Info : Digital Theater Systems
Codec ID : A_DTS
Duration : 1h 15mn
Bit rate mode : Constant
Bit rate : 1 510 Kbps
Channel(s) : 6 channels
Channel positions : Front: L C R, Side: L R, LFE
Sampling rate : 48.0 KHz
Bit depth : 24 bits
Stream size : 818 MiB (14%)
Language : Russian
Audio #2
ID : 3
Format : DTS
Format/Info : Digital Theater Systems
Codec ID : A_DTS
Duration : 1h 15mn
Bit rate mode : Constant
Bit rate : 1 510 Kbps
Channel(s) : 6 channels
Channel positions : Front: L C R, Side: L R, LFE
Sampling rate : 48.0 KHz
Bit depth : 24 bits
Stream size : 818 MiB (14%)
Language : English
Скриншоты



Вернуться к началу
 Профиль Отправить личное сообщение  
 
   Похожие торренты   Автор   Торрент   Размер 
В этой теме нет новых непрочитанных сообщений. Розовая пантера наносит ответный удар / The Pink Panther Strikes Again [комедия, 1976] HDRip-AVC, Dub+Mvo

salma3

82 | 20

2.18 ГБ

В этой теме нет новых непрочитанных сообщений. Лепрекон 4: В космосе / Leprechaun 4: In Space [ужасы, фантастика, комедия, 1996] BDRip, Mvo

salma3

13 | 2

1.45 ГБ

В этой теме нет новых непрочитанных сообщений. Пикник в космосе / SpaceCamp [Фантастика, приключения, семейный, 1986] BDRip, Mvo

salma3

32 | 14

1.45 ГБ

В этой теме нет новых непрочитанных сообщений. Пикник в космосе / SpaceCamp [Фантастика, приключения, семейный, 1986] BDRip 1080p, Mvo

salma3

5 | 0

11.12 ГБ

В этой теме нет новых непрочитанных сообщений. Ответный удар / Strike Back [06x05 из 10] [Боевик, триллер, драма, 2017] HDTVRip, Mvo [IdeaFilm]

salma3

0 | 0

2.77 ГБ

В этой теме нет новых непрочитанных сообщений. Ответный удар / Strike Back / 5 сезон 1-10 серии из 10 [драма, боевик, 2015] HDTVRip 720р, Mvo [BaibaKo]

salma3

25 | 37

15.54 ГБ

В этой теме нет новых непрочитанных сообщений. Ответный удар / Strike Back [S05] (Майкл Дж. Бассет, Джулиан Холмс) [2015, Боевик, триллер, драма, HDTVRip 1080p | Novamedia]

Nickolas3435

29 | 18

16.75 ГБ


Начать новую тему Ответить на тему  [ 1 сообщение ] 




Для Мосгорсуда, Роскомнадзора и рекламодателей:: mosgorsud-torrent[собачка]yandex.ru
cron