Торрент файл
скачать торрент магнет ссылка Добавлен: 23 май 2011, 20:58
Размер: 8.33 ГБ
Сидеров: 1
Личеров: 4
Автор

СообщениеДобавлено: 23 май 2011, 20:58 

Не в сети
Супермодератор
Аватара пользователя
Дата регистрации:
14 июн 2010, 21:00
Возраст: 30
Спасибо: 1341 / 1
Сообщения: 5611
Откуда: НиНО
Альфа и Омега: Клыкастая братва / Alpha and Omega
Год выпуска: 2010
Страна: США, Индия
Жанр: мультфильм, комедия, приключения, семейный
Продолжительность: 01:28:08
Перевод: Профессиональный (дублированный)
Русские субтитры: нет
Режиссер на русском: Энтони Белл, Бен Глю
Режиссер на английском: Anthony Bell, Ben Gluck)
В ролях: Джастин Лонг, Хайден Панеттьери, Деннис Хоппер, Дэнни Гловер, Ларри Миллер, Эрик Прайс, Викки Льюис, Крис Кармак, Кевин Суссман, Брайан Донован
Описание:
Омега - волк, далёкий от высших кругов. Он мечтает познакомиться с самой популярной волчицей в стае - Альфой. И вот судьба подбрасывает ему неплохой шанс - работники заповедника отправляют их в Айдахо. Волку и волчице придётся сплотиться, для того, чтобы вернуться на свою родину.

Качество: BDrip
Контейнер: MKV
Формат 3D: OverUnder / Вертикальная стереопара
Видео кодек: h.264
Аудио кодек: DTS
Видео: MPEG4 Video (H264) / 1920х2072 / 23.98fps / 11,7 Мбит/сек
Аудио: Rus DTS / 5.1 / 48 kHz / 755 kbps / 24-bit
Аудио 2: Eng DTS / 5.1 / 48 kHz / 755 kbps / 24-bit
Субтитры: НЕТ
Релиз группы:
MediaInfo
Общее
Уникальный идентификатор : 224477929501066211885367850184892008976 (0xA8E0E06AB18F4FAB934DAE1D45A0CA10)
Полное имя : Альфа_и_Омега_3D_1080p.mkv
Формат : Matroska
Размер файла : 8,33 Гбайт
Продолжительность : 1 ч. 28 м.
Общий поток : 13,5 Мбит/сек
Дата кодирования : UTC 2011-03-06 14:09:36
Программа кодирования : mkvmerge v3.4.0 ('Rapunzel') сборка от May 15 2010 09:38:20
Библиотека кодирования : libebml v0.8.0 + libmatroska v0.9.0
Видео
Идентификатор : 1
Формат : AVC
Формат/Информация : Advanced Video Codec
Профиль формата : [email protected]
Параметр CABAC формата : Да
Параметр ReFrames формата : 4 кадры
Идентификатор кодека : V_MPEG4/ISO/AVC
Продолжительность : 1 ч. 28 м.
Битрейт : 11,7 Мбит/сек
Ширина : 1920 пикс.
Высота : 2072 пикс.
Соотношение сторон : 0,927
Частота кадров : 23,976 кадр/сек
Цветовое пространство : YUV
Подвыборка цветности : 4:2:0
Битовая глубина : 8 бит
Тип развёртки : Прогрессивная
Бит/(Пиксели*Кадры) : 0.123
Размер потока : 7,23 Гбайт (87%)
Библиотека кодирования : x264 core 112 r1834 a51816a
Настройки программы : cabac=1 / ref=4 / deblock=1:-1:-1 / analyse=0x3:0x133 / me=tesa / subme=10 / psy=1 / psy_rd=0.40:0.05 / mixed_ref=1 / me_range=32 / chroma_me=1 / trellis=2 / 8x8dct=1 / cqm=0 / deadzone=21,11 / fast_pskip=0 / chroma_qp_offset=-3 / threads=6 / sliced_threads=0 / nr=0 / decimate=0 / interlaced=0 / constrained_intra=0 / bframes=8 / b_pyramid=2 / b_adapt=2 / b_bias=0 / direct=3 / weightb=1 / open_gop=0 / weightp=2 / keyint=250 / keyint_min=23 / scenecut=40 / intra_refresh=0 / rc=crf / mbtree=0 / crf=18.0 / qcomp=0.70 / qpmin=0 / qpmax=51 / qpstep=4 / ip_ratio=1.40 / pb_ratio=1.30 / aq=1:0.90
Аудио #1
Идентификатор : 2
Формат : DTS
Формат/Информация : Digital Theater Systems
Идентификатор кодека : A_DTS
Продолжительность : 1 ч. 28 м.
Вид битрейта : Постоянный
Битрейт : 755 Кбит/сек
Канал(ы) : 6 канала(ов)
Расположение каналов : Front: L C R, Side: L R, LFE
Частота : 48,0 КГц
Битовая глубина : 24 бит
Метод сжатия : С потерями
Размер потока : 476 Мбайт (6%)
Заголовок : Дубляж
Язык : Russian
Аудио #2
Идентификатор : 3
Формат : DTS
Формат/Информация : Digital Theater Systems
Идентификатор кодека : A_DTS
Продолжительность : 1 ч. 28 м.
Вид битрейта : Постоянный
Битрейт : 755 Кбит/сек
Канал(ы) : 6 канала(ов)
Расположение каналов : Front: L C R, Side: L R, LFE
Частота : 48,0 КГц
Битовая глубина : 24 бит
Метод сжатия : С потерями
Размер потока : 476 Мбайт (6%)
Заголовок : English_DTS
Язык : English
Скриншоты



Вернуться к началу
 Профиль Отправить личное сообщение  
 
   Похожие торренты   Автор   Торрент   Размер 
В этой теме нет новых непрочитанных сообщений. Альфа и Омега 6: Пещеры динозавров / Alpha and Omega: Dino Digs [мультфильм, фэнтези, комедия, приключения, семейный, 2016] WEB-DL 720р, Dub

salma3

348 | 55

1.57 ГБ

В этой теме нет новых непрочитанных сообщений. Альфа и Омега 5: Семейный отдых [Мультфильм, комедия, приключения, семейный, полнометражный, 2015] HDRip, Dub

Dracon

297 | 16

663.21 МБ

В этой теме нет новых непрочитанных сообщений. Подводная братва / Shark Tale [мультфильм, комедия, приключения, семейный, 2004] WEBRip 1080p, Dub+Mvo+Dvo+Avo+Sub

salma3

47 | 13

7.05 ГБ

В этой теме нет новых непрочитанных сообщений. Альфа-дом / Alpha House [S02] [драма, комедия, 2014] WEBRip 720p, Dvo [Hamster]

salma3

16 | 10

6.55 ГБ

В этой теме нет новых непрочитанных сообщений. Код «Омега» / The Omega Code [фантастика, фэнтези, боевик, 1999] DVDRip, Mvo

salma3

118 | 39

1.46 ГБ

В этой теме нет новых непрочитанных сообщений. Аисты / Storks [мультфильм, фэнтези, комедия, приключения, семейный, 2016] BDRip 1080p, Dub [Лицензия]

salma3

59 | 14

8.86 ГБ

В этой теме нет новых непрочитанных сообщений. Дозор джунглей / Les as de la jungle [Мультфильм, комедия, приключения, семейный, 2017] BDRip 1080p, Dub [iTunes]

salma3

283 | 17

1.99 ГБ


Начать новую тему Ответить на тему  [ 1 сообщение ] 




Для Мосгорсуда, Роскомнадзора и рекламодателей:: mosgorsud-torrent[собачка]yandex.ru
cron