Торрент файл
скачать торрент магнет ссылка Добавлен: 23 май 2011, 20:57
Размер: 7.42 ГБ
Сидеров: 18
Личеров: 9
Автор

СообщениеДобавлено: 23 май 2011, 20:57 

Не в сети
Супермодератор
Аватара пользователя
Дата регистрации:
14 июн 2010, 21:00
Возраст: 29
Спасибо: 1341 / 1
Сообщения: 5611
Откуда: НиНО
Рождественская история 3Д / A Christmas Carol 3DСтрана: США
Жанр: фэнтези, драма, семейный, мультфильм
Продолжительность: 01:35:48
Год выпуска: 2009
Перевод: Профессиональный (дублированный)
Русские субтитры: есть
Режиссёр: Роберт Земекис / Robert Zemeckis
Роли озвучивали: Джим Керри, Стив Валентайн, Дэрил Сабара, Сэйдж Райан, Эмбер Гейни Миде, Райан Очоа, Бобби Пейдж, Рон Боттитта, Сэмми Ханратти, Джулиан Холлоуэй
Описание: Это викторианская поучительная история о старом и ожесточившемся скупердяе Эбенезере Скрудже, который в течение одной ночи переживает испытание глубокого очищения. Мистер Скрудж - финансист/денежный меняла, который посвятил всю свою жизнь накоплению богатства. Он презирает всё, кроме денег, включая дружбу, любовь и рождественские праздники.--Качество: BDrip
Формат: MKV
Формат 3D: Half SideBySide / Горизонтальная анаморфная стереопара
Видео кодек: x264
Аудио кодек: AC3
Видео: MPEG4 Video (H264) 1920x1080 23.98fps 10 000 Kbps
Аудио: Russian AC3 48000Hz 6ch 640 Kbps
Аудио: English AC3 48000Hz 6ch 640 Kbps
mi
Format : Matroska
File size : 7.42 GiB
Duration : 1h 35mn
Overall bit rate : 11.1 Mbps
Encoded date : UTC 2010-11-18 17:41:20
Writing application : mkvmerge v2.9.7 ('Tenderness') built on Jul 1 2009 18:43:35
Writing library : libebml v0.7.7 + libmatroska v0.8.1
Video
ID : 1
Format : AVC
Format/Info : Advanced Video Codec
Format profile : [email protected]
Format settings, CABAC : Yes
Format settings, ReFrames : 4 frames
Format settings, GOP : M=4, N=32
Muxing mode : Container [email protected]
Codec ID : V_MPEG4/ISO/AVC
Duration : 1h 35mn
Bit rate : 10 000 Kbps
Width : 1 920 pixels
Height : 1 080 pixels
Display aspect ratio : 16:9
Frame rate mode : Variable
Frame rate : 23.976 fps
Color space : YUV
Chroma subsampling : 4:2:0
Bit depth : 8 bits
Scan type : Progressive
Bits/(Pixel*Frame) : 0.201
Stream size : 6.42 GiB (86%)
Writing library : x264 core 107 r1745 4785e8e
Encoding settings : cabac=1 / ref=3 / deblock=1:0:0 / analyse=0x3:0x113 / me=hex / subme=7 / psy=1 / psy_rd=1.00:0.00 / mixed_ref=1 / me_range=16 / chroma_me=1 / trellis=1 / 8x8dct=1 / cqm=0 / deadzone=21,11 / fast_pskip=1 / chroma_qp_offset=-2 / threads=4 / sliced_threads=0 / nr=0 / decimate=1 / interlaced=0 / constrained_intra=0 / bframes=3 / b_pyramid=2 / b_adapt=1 / b_bias=0 / direct=1 / weightb=1 / open_gop=0 / weightp=2 / keyint=250 / keyint_min=25 / scenecut=40 / intra_refresh=0 / rc_lookahead=40 / rc=abr / mbtree=1 / bitrate=10000 / ratetol=1.0 / qcomp=0.60 / qpmin=10 / qpmax=51 / qpstep=4 / ip_ratio=1.41 / aq=1:1.00
Language : English
Audio #1
ID : 2
Format : AC-3
Format/Info : Audio Coding 3
Mode extension : CM (complete main)
Codec ID : A_AC3
Duration : 1h 35mn
Bit rate mode : Constant
Bit rate : 640 Kbps
Channel(s) : 6 channels
Channel positions : Front: L C R, Side: L R, LFE
Sampling rate : 48.0 KHz
Bit depth : 16 bits
Stream size : 439 MiB (6%)
Language : Russian
Audio #2
ID : 3
Format : AC-3
Format/Info : Audio Coding 3
Mode extension : CM (complete main)
Codec ID : A_AC3
Duration : 1h 35mn
Bit rate mode : Constant
Bit rate : 640 Kbps
Channel(s) : 6 channels
Channel positions : Front: L C R, Side: L R, LFE
Sampling rate : 48.0 KHz
Bit depth : 16 bits
Stream size : 439 MiB (6%)
Language : English
Скриншоты



Вернуться к началу
 Профиль Отправить личное сообщение  
 
   Похожие торренты   Автор   Торрент   Размер 
В этой теме нет новых непрочитанных сообщений. Союзники / Allied (Роберт Земекис / Robert Zemeckis) [2016г., боевик, триллер, драма, мелодрама, военный, WEB-DLRip] MVO

Alfredovich

0 | 0

1.46 ГБ

В этой теме нет новых непрочитанных сообщений. Рождественская звезда / The Christmas Star [драма, семейный, 1986] DVDRip, Avo

salma3

4 | 4

1.47 ГБ

В этой теме нет новых непрочитанных сообщений. Все собаки празднуют Рождество / An All Dogs Christmas Carol [мультфильм, 1998] WEB-DL 1080p, Dub

salma3

64 | 18

3.5 ГБ

В этой теме нет новых непрочитанных сообщений. Рождественская звезда / A Christmas Star [семейный, 2015] HDRip, AVO

salma3

100 | 11

1.15 ГБ

В этой теме нет новых непрочитанных сообщений. Рождественская подмена / Christmas Trade [комедия, семейный, 2015] HDRip, Mvo [официальный звук]

salma3

246 | 70

1.53 ГБ

В этой теме нет новых непрочитанных сообщений. Страшная рождественская история / A Christmas Horror Story (Грант Харви, Стивен Хобан) [Ужасы, 2015] WEB-DL 720p, dvo

Dracon

823 | 53

3.15 ГБ

В этой теме нет новых непрочитанных сообщений. Мы вернулись! История динозавра / We're Back! A Dinosaur's Story [мультфильм, фэнтези, приключения, семейный, 1993] BDRip 720p, Mvo

salma3

21 | 10

7.62 ГБ


Начать новую тему Ответить на тему  [ 1 сообщение ] 




Для Мосгорсуда, Роскомнадзора и рекламодателей:: mosgorsud-torrent[собачка]yandex.ru
cron