Торрент файл
скачать торрент магнет ссылка Добавлен: 23 май 2011, 20:56
Размер: 4.99 ГБ
Сидеров: 1
Личеров: 4
Автор

СообщениеДобавлено: 23 май 2011, 20:56 

Не в сети
Супермодератор
Аватара пользователя
Дата регистрации:
14 июн 2010, 21:00
Возраст: 29
Спасибо: 1341 / 1
Сообщения: 5611
Откуда: НиНО
Гадкий Я 3Д / Despicable Me 3DСтрана: США
Жанр: комедия, семейный, мультфильм
Год выпуска: 2010
Продолжительность: 01:34:48-Перевод : Профессиональный (дубляж)
Русские субтитры: нет
Режиссёр: Пьер Соффин / Pierre Coffin, Крис Рено / Chris Renaud
В ролях: Стив Карелл, Джейсон Сигел, Расселл Брэнд, Джули Эндрюс, Уилл Арнетт, Кристен Уиг, Миранда Косгров, Дэна Гайер, Элси Фишер, Пьер Соффин...
Роли дублировали : Леонид Ярмольник, Марк Тишман, Михаил Георгиу, Наталья Гурзо, Алексей Колган
Описание: Гадкий снаружи, но добрый внутри Грю намерен, тем не менее, закрепить за собой статус главного архизлодея в мире, для чего он решает выкрасть Луну при помощи созданной им армии миньонов. Дело осложняют конкуренты, вставляющие высокотехнические палки в колеса, и семейные обстоятельства в виде трех сироток, о которых Грю вынужден заботиться.-бюджет $69 000 000
сборы в США $250 060 965
сборы в мире $536 660 965
сборы в России $11 101 103---Качество: BDrip
Формат: MKV
Формат 3D: OverUnder / Вертикальная стереопара
Видео кодек: x264
Аудио кодек: AC3, DTS
Видео: MPEG4 Video (H264) 1280x1392 23.98fps 5491 Kbps
Аудио 1: Russian : Dolby AC3 48000Hz 5.1ch 384 kbps
Аудио 2: English : DTS 48000Hz 5.1ch 1510kbps
me
Format : Matroska
File size : 4.99 GiB
Duration : 1h 34mn
Overall bit rate : 7 535 Kbps
Encoded date : UTC 2010-12-10 14:18:59
Writing application : mkvmerge v2.9.7 ('Tenderness') built on Jul 1 2009 18:43:35
Writing library : libebml v0.7.7 + libmatroska v0.8.1
Video
ID : 1
Format : AVC
Format/Info : Advanced Video Codec
Format profile : [email protected]
Format settings, CABAC : Yes
Format settings, ReFrames : 4 frames
Muxing mode : Container [email protected]
Codec ID : V_MPEG4/ISO/AVC
Duration : 1h 34mn
Bit rate : 5 491 Kbps
Width : 1 280 pixels
Height : 1 392 pixels
Display aspect ratio : 0.920
Frame rate : 23.976 fps
Color space : YUV
Chroma subsampling : 4:2:0
Bit depth : 8 bits
Scan type : Progressive
Bits/(Pixel*Frame) : 0.129
Stream size : 3.64 GiB (73%)
Writing library : x264 core 110 r1804 e89c4cf
Encoding settings : cabac=1 / ref=4 / deblock=1:-2:-2 / analyse=0x3:0x113 / me=umh / subme=7 / psy=1 / psy_rd=1.00:0.15 / mixed_ref=1 / me_range=16 / chroma_me=1 / trellis=2 / 8x8dct=1 / cqm=0 / deadzone=21,11 / fast_pskip=1 / chroma_qp_offset=-3 / threads=6 / sliced_threads=0 / nr=0 / decimate=1 / interlaced=0 / constrained_intra=0 / bframes=6 / b_pyramid=0 / b_adapt=2 / b_bias=0 / direct=3 / weightb=1 / open_gop=0 / weightp=2 / keyint=250 / keyint_min=23 / scenecut=40 / intra_refresh=0 / rc_lookahead=40 / rc=crf / mbtree=1 / crf=18.0 / qcomp=0.60 / qpmin=10 / qpmax=51 / qpstep=4 / ip_ratio=1.40 / aq=1:1.00
Language : English
Audio #1
ID : 2
Format : AC-3
Format/Info : Audio Coding 3
Mode extension : CM (complete main)
Codec ID : A_AC3
Duration : 1h 34mn
Bit rate mode : Constant
Bit rate : 384 Kbps
Channel(s) : 6 channels
Channel positions : Front: L C R, Side: L R, LFE
Sampling rate : 48.0 KHz
Bit depth : 16 bits
Stream size : 260 MiB (5%)
Title : Dub
Language : Russian
Audio #2
ID : 3
Format : DTS
Format/Info : Digital Theater Systems
Codec ID : A_DTS
Duration : 1h 34mn
Bit rate mode : Constant
Bit rate : 1 510 Kbps
Channel(s) : 6 channels
Channel positions : Front: L C R, Side: L R, LFE
Sampling rate : 48.0 KHz
Bit depth : 24 bits
Stream size : 1 024 MiB (20%)
Language : English
Скриншоты



Вернуться к началу
 Профиль Отправить личное сообщение  
 
   Похожие торренты   Автор   Торрент   Размер 
В этой теме нет новых непрочитанных сообщений. Миньоны / Minions (Кайл Балда, Пьер Соффин) [мультфильм, комедия, семейный, 2015] BDRip 720p, Dub [iTunes]

Dracon

98 | 8

2.43 ГБ

В этой теме нет новых непрочитанных сообщений. Миньоны / Minions (Кайл Балда, Пьер Соффин) [мультфильм, комедия, семейный, 2015] BDRip 720p, Dub+Sub [Лицензия]

Dracon

806 | 258

5.69 ГБ

В этой теме нет новых непрочитанных сообщений. Миньоны / Minions (Кайл Балда, Пьер Соффин) [мультфильм, комедия, семейный, 2015] BDRip-AVC, Dub+Sub [Лицензия]

Dracon

757 | 196

1.46 ГБ

В этой теме нет новых непрочитанных сообщений. Миньоны / Minions (Кайл Балда, Пьер Соффин) [мультфильм, комедия, семейный, 2015] BDRip 1080p, Dub+Sub [Лицензия]

Dracon

798 | 533

12.1 ГБ

В этой теме нет новых непрочитанных сообщений. Миньоны / Minions (Кайл Балда, Пьер Соффин) [мультфильм, комедия, семейный, 2015] BDRip 1080p, Dub [iTunes]

Dracon

101 | 8

4.61 ГБ

В этой теме нет новых непрочитанных сообщений. Миньоны / Minions (Кайл Балда, Пьер Соффин) [мультфильм, комедия, семейный, 2015] HDTVRip 720p, dub [Чистый звук]

slawa4155

1800 | 15

2.78 ГБ

В этой теме нет новых непрочитанных сообщений. Миньоны / Minions (Кайл Балда, Пьер Соффин) [мультфильм, комедия, семейный, 2015] BDRip 1080p, Dub+Sub [3D-Video | Лицензия]

Dracon

342 | 36

11.29 ГБ


Начать новую тему Ответить на тему  [ 1 сообщение ] 




Для Мосгорсуда, Роскомнадзора и рекламодателей:: mosgorsud-torrent[собачка]yandex.ru
cron