Торрент файл
скачать торрент магнет ссылка Добавлен: 23 май 2011, 20:46
Размер: 6.08 ГБ
Сидеров: 1
Личеров: 4
Автор

СообщениеДобавлено: 23 май 2011, 20:46 

Не в сети
Супермодератор
Аватара пользователя
Дата регистрации:
14 июн 2010, 21:00
Возраст: 30
Спасибо: 1341 / 1
Сообщения: 5611
Откуда: НиНО
Гномео и Джульетта 3D / Gnomeo and Juliet 3D
-Год выпуска: 2011
Страна: США, Великобритания
Студия: Walt Disney Pictures, Rocket Pictures, Starz Anima
Жанр: мультфильм, фэнтези, мелодрама, комедия
Продолжительность: 01:23:50
Перевод: Любительский (одноголосый закадровый) [Zamez]
Русские субтитры: нет-Режиссер: Келли Эсбёри / Kelly Asbury-Роли озвучивали: Джеймс МакЭвой, Эмили Блант, Эшли Дженсен, Майкл Кейн, Мэтт Лукас, Джим Каммингс, Мэгги Смит, Джейсон Стэтхэм, Оззи Осборн, Стефен Мерчант-Описание: Интерпретация пьесы Уильяма Шекспира, в которой противоборствуют семьи садовых гномов и гномов домашних.- -Качество: BDrip 1080p
Контейнер: MKV
Формат 3D: SideBySide / Горизонтальная стереопара
Видео кодек: x264
Аудио кодек: AC3
Видео: 1920x1080 (16:9), 23.976 fps, MPEG-4 AVC ~9796 kbps avg, 0.197 bit/pixel
Аудио: 48 kHz, AC3 Dolby Digital, 3/2 (L,C,R,l,r) + LFE ch, ~384.00 kbps avg
Скачать: Сэмпл-
MediaInfo
General
Unique ID : 214628594946022029145341561119216569627 (0xA177F6BB207E296F83F77620E9C10D1B)
Complete name : Gnomeo.i.Julieta.3D.2011.x264.BDRip.1080p.mkv
Format : Matroska
File size : 6.08 GiB
Duration : 1h 23mn
Overall bit rate : 10.4 Mbps
Movie name : Gnomio & Juliet - Encoded by 3D4U - www.3dblurayiso.com
Encoded date : UTC 2011-05-14 10:34:31
Writing application : mkvmerge v4.0.0 ('The Stars were mine') сборка от Jun 11 2010 23:24:27
Writing library : libebml v1.0.0 + libmatroska v1.0.0
Video
ID : 1
Format : AVC
Format/Info : Advanced Video Codec
Format profile : [email protected]
Format settings, CABAC : Yes
Format settings, ReFrames : 2 frames
Codec ID : V_MPEG4/ISO/AVC
Duration : 1h 23mn
Bit rate mode : Variable
Bit rate : 9 796 Kbps
Maximum bit rate : 15.0 Mbps
Width : 1 920 pixels
Height : 1 080 pixels
Display aspect ratio : 16:9
Frame rate : 23.976 fps
Color space : YUV
Chroma subsampling : 4:2:0
Bit depth : 8 bits
Scan type : Progressive
Bits/(Pixel*Frame) : 0.197
Stream size : 5.74 GiB (94%)
Language : English
Audio
ID : 2
Format : AC-3
Format/Info : Audio Coding 3
Mode extension : CM (complete main)
Codec ID : A_AC3
Duration : 1h 23mn
Bit rate mode : Constant
Bit rate : 384 Kbps
Channel(s) : 6 channels
Channel positions : Front: L C R, Side: L R, LFE
Sampling rate : 48.0 KHz
Bit depth : 16 bits
Compression mode : Lossy
Stream size : 230 MiB (4%)
Скриншоты



Вернуться к началу
 Профиль Отправить личное сообщение  
 
   Похожие торренты   Автор   Торрент   Размер 
В этой теме нет новых непрочитанных сообщений. Келли Мэдисон 6 / Kelly 6 (2017) DVDRip

salma3

0 | 0

2.34 ГБ

В этой теме нет новых непрочитанных сообщений. Kelly Divine and London Keyes - scene Kelly Divine Is Buttwoman [2011 г., Gonzo, Anal, Big Butt, Cum Swapping, Interracial, BDRip]

salma3

5 | 1

1.45 ГБ

В этой теме нет новых непрочитанных сообщений. Джульетта / Julieta [драма, мелодрама, 2016] BDRip, Dub [iTunes]

salma3

214 | 66

1.42 ГБ

В этой теме нет новых непрочитанных сообщений. Джульетта / Julieta [Драма, мелодрама, 2016] BDRip-AVC, Dub [iTunes]

salma3

8 | 3

1.7 ГБ

В этой теме нет новых непрочитанных сообщений. Джульетта / Julieta [Драма, мелодрама, 2016] BDRip-AVC, Dub [iTunes]

salma3

0 | 1

745.06 МБ

В этой теме нет новых непрочитанных сообщений. Kelly Vol. 3 / Келли Мэдисон 3 (Ryan Madison, Porn Fidelity) [2017 г., Big Boobs, Blondes, Couples, Gonzo, Naturally Busty, Star showcase, DVDRip]

salma3

9 | 3

1.78 ГБ

В этой теме нет новых непрочитанных сообщений. Джульетта / Julieta [драма, мелодрама, 2016] BDRip 720p, Dub [чистый звук]

salma3

5 | 4

4.25 ГБ


Начать новую тему Ответить на тему  [ 1 сообщение ] 




Для Мосгорсуда, Роскомнадзора и рекламодателей:: mosgorsud-torrent[собачка]yandex.ru
cron