Торрент файл
скачать торрент магнет ссылка Добавлен: 23 май 2011, 20:46
Размер: 1.37 ГБ
Сидеров: 3
Личеров: 5
Автор

СообщениеДобавлено: 23 май 2011, 20:46 

Не в сети
Супермодератор
Аватара пользователя
Дата регистрации:
14 июн 2010, 21:00
Возраст: 29
Спасибо: 1341 / 1
Сообщения: 5611
Откуда: НиНО
Балбесы 3D / Olsen Banden pa de bonede gulve
-Страна: Дания
Жанр: мультфильм, комедия, криминал
Продолжительность: 01:14:59
Год выпуска: 2010
Перевод: Профессиональный (дублированный) [Лицензия]
Русские субтитры: нет-Режиссёр: Юрген Лердам / Jørgen Lerdam-Роли озвучивали: Мартин Бух, Николай Кристенсен, Аннетт Хеик, Альберт С. Ланд, Йонас Шмидт, Сёрен Сэттер-Лассен, Мик Огендаль, Саймон Джул Ёргенсон-Описание: Эгон Ольсен — криминальный гений и закоренелый преступник. Его постоянные подельники — Бенни и Кельд, парочка глупых и абсолютно безвредных воришек, никогда не прибегающих к насилию. К сожалению, филигранно продуманные операции Ольсена терпят фиаско с завидной регулярностью, но всякий раз, отмотав срок, компания неунывающих неудачников объединяется, чтобы реализовывать очередной «гениальный» план обогащения.
На сей раз банда Ольсена решает похитить мемориальное перо, которым были написаны лучшие произведения легендарного сказочника Ганса Христиана Андерсена. Но хитроумная операция опять пошла не тем путем! В дело оказались впутаны китайский магнат, датская королева и продажный премьер-министр. Удастся ли Эгону избежать ареста? Или вместо увильнувшей от полиции «крупной рыбы» ему опять придется выступить «козлом отпущения»?..-Релиз от -Kinopoisk.ru:
--Качество: DVDRip 3D
Формат: AVI
Формат 3D: Анаглиф / Anaglyph, red'cyan
Видео: 720x400 (16:9), 25.000 fps, Xvid ~1832 Kbps avg, 0.255 bit/pixel
Аудио 1:Russian 48 kHz, AC3 Dolby Digital, 3/2 (L,C,R,l,r) + LFE ch, ~384.00 kbps avg
Аудио 2:Danish 48 kHz, AC3 Dolby Digital, 3/2 (L,C,R,l,r) + LFE ch, ~384.00 kbps avg
Субтитры: отсутствуют-
Подробные технические данные
Код:
General
Complete name: E:\Кино для киноманов\3D\Balbesy.3D.2010.D.DVDRip.avi
Format: AVI
Format/Info: Audio Video Interleave
File size: 1.37 GiB
Duration: 1h 15mn
Overall bit rate: 2 615 Kbps
Writing application: VirtualDubMod 1.5.4.1 (build 2178/release)
Writing library: VirtualDubMod build 2178/release
Video
ID: 0
Format: MPEG-4 Visual
Format profile: Advanced [email protected]
Format settings, BVOP: Yes
Format settings, QPel: No
Format settings, GMC: No warppoints
Format settings, Matrix: Custom
Codec ID: XVID
Codec ID/Hint: XviD
Duration: 1h 15mn
Bit rate: 1 832 Kbps
Width: 720 pixels
Height: 400 pixels
Display aspect ratio: 16:9
Frame rate: 25.000 fps
Color space: YUV
Chroma subsampling: 4:2:0
Bit depth: 8 bits
Scan type: Progressive
Compression mode: Lossy
Bits/(Pixel*Frame): 0.255
Stream size: 983 MiB (70%)
Writing library: XviD 58
Audio #1
ID: 1
Format: AC-3
Format/Info: Audio Coding 3
Mode extension: CM (complete main)
Codec ID: 2000
Duration: 1h 14mn
Bit rate mode: Constant
Bit rate: 384 Kbps
Channel(s): 6 channels
Channel positions: Front: L C R, Side: L R, LFE
Sampling rate: 48.0 KHz
Bit depth: 16 bits
Compression mode: Lossy
Stream size: 206 MiB (15%)
Alignment: Split accross interleaves
Interleave, duration: 40 ms (1.00 video frame)
Interleave, preload duration: 500 ms
Audio #2
ID: 2
Format: AC-3
Format/Info: Audio Coding 3
Mode extension: CM (complete main)
Codec ID: 2000
Duration: 1h 14mn
Bit rate mode: Constant
Bit rate: 384 Kbps
Channel(s): 6 channels
Channel positions: Front: L C R, Side: L R, LFE
Sampling rate: 48.0 KHz
Bit depth: 16 bits
Compression mode: Lossy
Stream size: 206 MiB (15%)
Alignment: Split accross interleaves
Interleave, duration: 40 ms (1.00 video frame)
Interleave, preload duration: 500 ms
Скриншоты
JPEG:

PNG:



Вернуться к началу
 Профиль Отправить личное сообщение  
 
   Похожие торренты   Автор   Торрент   Размер 
В этой теме нет новых непрочитанных сообщений. Банда грабителей / Band of Robbers [Триллер, комедия, криминал, приключения, 2015] WEB-DLRip, avo

Dracon

2040 | 54

1.44 ГБ

В этой теме нет новых непрочитанных сообщений. Банда Йонссона. Большой куш / Jonssonligan. Den perfekta stoten (Алэн Дарборг) [2015, Детектив, комедия, DVDRip | Lord32x Studio] avo

Dracon

1922 | 105

1.47 ГБ

В этой теме нет новых непрочитанных сообщений. Банда Йонссона. Большой куш / Jonssonligan. Den perfekta stoten (Алэн Дарборг) [2015, Детектив, комедия, DVDRip от Lord32x Studio] avo

Dracon

250 | 10

750.06 МБ

В этой теме нет новых непрочитанных сообщений. [JulesJordan.com] Anya Olsen (Anya Olsen Worships Mandingo's Giant Big Black Cock / 06.09.17) [2017 г., All Sex, 360p]

salma3

13 | 4

277.4 МБ

В этой теме нет новых непрочитанных сообщений. [JulesJordan.com] Anya Olsen (Anya Olsen Has An Assgasm With Manuel Ferrara / 26.07.17.) [2017 г., Gonzo, Anal, 360p]

salma3

38 | 13

350.41 МБ

В этой теме нет новых непрочитанных сообщений. Банда ублюдков 4 / Band Of Bastards 4 (2011) DVDRip

salma3

129 | 14

700.03 МБ

В этой теме нет новых непрочитанных сообщений. Банда ублюдков 2 / Band Of Bastards 2 (2011) DVDRip

salma3

86 | 11

699.18 МБ


Начать новую тему Ответить на тему  [ 1 сообщение ] 




Для Мосгорсуда, Роскомнадзора и рекламодателей:: mosgorsud-torrent[собачка]yandex.ru
cron