Торрент файл
скачать торрент магнет ссылка Добавлен: 23 май 2011, 20:46
Размер: 5.21 ГБ
Сидеров: 1
Личеров: 4
Автор

СообщениеДобавлено: 23 май 2011, 20:46 

Не в сети
Супермодератор
Аватара пользователя
Дата регистрации:
14 июн 2010, 21:00
Возраст: 30
Спасибо: 1341 / 1
Сообщения: 5611
Откуда: НиНО
История Игрушек 2 / Toy Story 2
Год выпуска: 1999
Страна: США
Студия: Walt Disney
Жанр: Мультфильм, Комедия, Семейный
Продолжительность: 01:28:22
Перевод: Профессиональный (дублированный) (Невафильм - Базз Лайтер)
Русские субтитры: нет
Режиссер на русском: Джон Лассетер
Режиссер на английском: John Lasseter
В ролях: Том Хэнкс, Дон Риклс, Уоллен Шон, Тим Аллен, Джим Варней
Описание: Новые приключения уже полюбившихся персонажей. Даже несмышленый малыш знает то, о чём не догадывается ни один взрослый: если выключить в комнате свет и плотно закрыть за собой дверь, неподвижные игрушки оживут и отправятся в захватывающее путешествие.
Качество: HDTVrip
Контейнер: MKV
Формат 3D: Half SideBySide / Горизонтальная анаморфная стереопара
Порядок ракурсов: левый ракурс первый
Видео кодек: Divx
Аудио кодек: AC3
Видео: DivX 5 1920x1080p 25.00fps 7804 Kbps
Аудио: Dolby AC3 48000Hz 6ch 448 Kbps
Скриншоты



MediaInfo
General
Format : Matroska
File size : 5.21 GiB
Duration : 1h 28mn
Overall bit rate : 8 420 Kbps
Encoded date : UTC 2011-03-04 17:41:15
Writing application : mkvmerge v4.4.0 ('Die Wiederkehr') сборка от Oct 31 2010 21:52:48
Writing library : libebml v1.0.0 + libmatroska v1.0.0
Video
ID : 1
Format : MPEG-4 Visual
Format profile : Advanced [email protected]
Format settings, BVOP : Yes
Format settings, QPel : No
Format settings, GMC : No warppoints
Format settings, Matrix : Default (H.263)
Codec ID : DX50
Codec ID/Hint : DivX 5
Duration : 1h 28mn
Bit rate : 7 804 Kbps
Width : 1 920 pixels
Height : 1 080 pixels
Display aspect ratio : 16:9
Frame rate : 25.000 fps
Color space : YUV
Chroma subsampling : 4:2:0
Bit depth : 8 bits
Scan type : Progressive
Compression mode : Lossy
Bits/(Pixel*Frame) : 0.151
Stream size : 4.83 GiB (93%)
Writing library : XviD 58
Language : English
Audio
ID : 2
Format : AC-3
Format/Info : Audio Coding 3
Mode extension : CM (complete main)
Codec ID : A_AC3
Duration : 1h 28mn
Bit rate mode : Constant
Bit rate : 448 Kbps
Channel(s) : 6 channels
Channel positions : Front: L C R, Side: L R, LFE
Sampling rate : 48.0 KHz
Bit depth : 16 bits
Compression mode : Lossy
Delay relative to video : 18ms
Stream size : 284 MiB (5%)



Вернуться к началу
 Профиль Отправить личное сообщение  
 
   Похожие торренты   Автор   Торрент   Размер 
В этой теме нет новых непрочитанных сообщений. История игрушек 2 / Toy Story 2 [мультфильм, фэнтези, комедия, 1999] BDRip 1080p, Dub

salma3

28 | 11

4.37 ГБ

В этой теме нет новых непрочитанных сообщений. Мы вернулись! История динозавра / We're Back! A Dinosaur's Story [мультфильм, фэнтези, приключения, семейный, 1993] BDRip 720p, Mvo

salma3

21 | 10

7.62 ГБ

В этой теме нет новых непрочитанных сообщений. Геркулес / Hercules [S01-02] [Мультфильм, семейный, приключения, история, 1998-1999] SATRip, Dub

salma3

12 | 16

14.83 ГБ

В этой теме нет новых непрочитанных сообщений. Бесконечная история 2: Новая глава / The NeverEnding Story II: The Next Chapter [фэнтези, приключения, семейный, 1990] BDRip 1080p, Mvo

salma3

40 | 19

6.67 ГБ

В этой теме нет новых непрочитанных сообщений. История Золушки 4: Если туфелька подойдёт / A Cinderella Story: If the Shoe Fits [фэнтези, семейный, 2016] WEB-DLRip, Mvo

salma3

697 | 103

1.46 ГБ

В этой теме нет новых непрочитанных сообщений. История Белль Старр / The Belle Starr Story [Вестерн, 1968] HDTVRip, Avo

salma3

48 | 16

1.33 ГБ

В этой теме нет новых непрочитанных сообщений. История моего лета / It Runs in the Family [комедия, семейный, 1994] HDTVRip-AVC, Avo

salma3

0 | 7

2.06 ГБ


Начать новую тему Ответить на тему  [ 1 сообщение ] 




Для Мосгорсуда, Роскомнадзора и рекламодателей:: mosgorsud-torrent[собачка]yandex.ru
cron