Торрент файл
скачать торрент магнет ссылка Добавлен: 23 май 2011, 20:45
Размер: 5.44 ГБ
Сидеров: 18
Личеров: 8
Автор

СообщениеДобавлено: 23 май 2011, 20:45 

Не в сети
Супермодератор
Аватара пользователя
Дата регистрации:
14 июн 2010, 21:00
Возраст: 29
Спасибо: 1341 / 1
Сообщения: 5611
Откуда: НиНО
Мегамозг 3Д / Megamind 3D Страна: США
Слоган: «It's big for a reason.»
Жанр: мультфильм, фантастика, боевик, комедия, семейный
Год выпуска: 2010
Продолжительность: 01:35:58
Перевод: Профессиональный (дублированный)
Русские субтитры: нет
Режиссер: Том МакГрат / Tom McGrath
В ролях: Уилл Феррелл, Брэд Питт, Тина Фей, Джона Хилл, Дэвид Кросс, Джастин Теру, Бен Стиллер, Джессика Шульте, Том МакГрат, Эмили Нордвинд
Описание: Мегамозг — самый гениальный и самый неудачливый злодей в мире. Вот уже много лет он пытается покорить Метро-Сити самыми разнообразными способами. Но каждая такая попытка кончается провалом по вине супергероя по имени Метро-Мэн. Но злодей убивает супергероя, и внезапно Мегамозг лишается цели в жизни. Суперзлодей без супергероя. Единственный выход — создать нового супергероя, которого он называет Титаном. Но Титан решает, что быть злодеем куда интереснее. Вот только ему не хочется править миром, он желает его уничтожить. Мегамозгу предстоит непростой выбор. Сможет ли злой гений стать героем — спасителем человечества.
бюджет $130 000 000
сборы в США $148 415 853
сборы в мире + $171 096 062 = $319 511 915
сборы в России $22 116 204--Качество: BDrip
Формат: MKV
Формат 3D: Half SideBySide / Горизонтальная анаморфная стереопара
Порядок ракурсов: Параллельная пара
Видео кодек: x264
Аудио кодек: AC3
Видео: MPEG4 Video (H264) 1920x1080 23.98fp 6674 Kbps
Аудио 1: Russian: AC3 48000Hz 5.1ch 640 kbps
Аудио 2: English: AC3 48000Hz 5.1ch 640 kbps
Знаете ли вы, что...
* На ранних этапах производства лента носила название «Master Mind». Но позже, ввиду разногласий с компанией Marvel, которая уже зарегистрировала подобное словосочетание, как товарный знак, название фильма пришлось сменить.
* «Мегамозг» стал первой картиной DreamWorks, сделанной в формате HDR (High Dynamic Range).
* В сцене дождя участвовали 700 000 смоделированных по всем законам физики капелек воды.
* Рабочие данные заняли 179 Тб на дисках студии.
* Рендеринг мультфильма занял 54 миллиона часов процессорного времени.
me
Format : Matroska
File size : 5.44 GiB
Duration : 1h 35mn
Overall bit rate : 8 115 Kbps
Encoded date : UTC 2011-04-18 22:20:18
Writing application : mkvmerge v2.9.7 ('Tenderness') built on Jul 1 2009 18:43:35
Writing library : libebml v0.7.7 + libmatroska v0.8.1
Video
ID : 1
Format : AVC
Format/Info : Advanced Video Codec
Format profile : [email protected]
Format settings, CABAC : Yes
Format settings, ReFrames : 4 frames
Codec ID : V_MPEG4/ISO/AVC
Duration : 1h 35mn
Bit rate : 6 674 Kbps
Width : 1 920 pixels
Height : 1 080 pixels
Display aspect ratio : 16:9
Frame rate : 23.976 fps
Color space : YUV
Chroma subsampling : 4:2:0
Bit depth : 8 bits
Scan type : Progressive
Bits/(Pixel*Frame) : 0.134
Stream size : 4.47 GiB (82%)
Writing library : x264 core 114 r1924 08d04a4
Encoding settings : cabac=1 / ref=4 / deblock=1:-1:-1 / analyse=0x3:0x133 / me=esa / subme=10 / psy=1 / psy_rd=1.00:0.00 / mixed_ref=1 / me_range=32 / chroma_me=1 / trellis=2 / 8x8dct=1 / cqm=0 / deadzone=21,11 / fast_pskip=0 / chroma_qp_offset=-2 / threads=12 / sliced_threads=0 / nr=0 / decimate=1 / interlaced=0 / constrained_intra=0 / bframes=3 / b_pyramid=2 / b_adapt=2 / b_bias=0 / direct=3 / weightb=1 / open_gop=0 / weightp=2 / keyint=250 / keyint_min=23 / scenecut=40 / intra_refresh=0 / rc_lookahead=60 / rc=crf / mbtree=1 / crf=17.0 / qcomp=0.60 / qpmin=10 / qpmax=69 / qpstep=4 / ip_ratio=1.40 / aq=1:1.00
Language : English
Audio #1
ID : 2
Format : AC-3
Format/Info : Audio Coding 3
Mode extension : CM (complete main)
Codec ID : A_AC3
Duration : 1h 35mn
Bit rate mode : Constant
Bit rate : 640 Kbps
Channel(s) : 6 channels
Channel positions : Front: L C R, Side: L R, LFE
Sampling rate : 48.0 KHz
Bit depth : 16 bits
Compression mode : Lossy
Stream size : 439 MiB (8%)
Language : rus
Audio #2
ID : 3
Format : AC-3
Format/Info : Audio Coding 3
Mode extension : CM (complete main)
Codec ID : A_AC3
Duration : 1h 35mn
Bit rate mode : Constant
Bit rate : 640 Kbps
Channel(s) : 6 channels
Channel positions : Front: L C R, Side: L R, LFE
Sampling rate : 48.0 KHz
Bit depth : 16 bits
Compression mode : Lossy
Stream size : 439 MiB (8%)
Language : English
Скриншоты



Вернуться к началу
 Профиль Отправить личное сообщение  
 
   Похожие торренты   Автор   Торрент   Размер 
В этой теме нет новых непрочитанных сообщений. Рэтчет и Кланк: Галактические рейнджеры / Ratchet & Clank (мультфильм, фантастика, боевик, комедия, приключения, семейный, 2015) BDRip-AVC от HELLYWOOD | iTunes

marya111

80 | 3

1.32 ГБ

В этой теме нет новых непрочитанных сообщений. Дом / Home (Тим Джонсон) [мультфильм, фантастика, фэнтези, комедия, приключения, семейный, 2015] BDRip 720p, Dub [iTunes]

Dracon

22 | 0

3.53 ГБ

В этой теме нет новых непрочитанных сообщений. Дом / Home (Тим Джонсон) [мультфильм, фантастика, фэнтези, комедия, приключения, семейный, 2015] BDRip 720p, Dub+Sub [лицензия]

Dracon

0 | 1

4.8 ГБ

В этой теме нет новых непрочитанных сообщений. Дом / Home (Тим Джонсон) [мультфильм, фантастика, фэнтези, комедия, приключения, семейный, 2015] BDRip 1080p, Dub+Sub [лицензия]

Dracon

2 | 1

7.1 ГБ

В этой теме нет новых непрочитанных сообщений. Дом / Home (Тим Джонсон) [мультфильм, фантастика, фэнтези, комедия, приключения, семейный, 2015] BDRip 1080p, Dub+Sub [3D-Video | Лицензия]

Dracon

1013 | 132

8.84 ГБ

В этой теме нет новых непрочитанных сообщений. Дом / Home (Тим Джонсон) [мультфильм, фантастика, фэнтези, комедия, приключения, семейный, 2015] BDRip 1080p, Dub+Sub [3D-Video | Лицензия]

Dracon

355 | 14

9.53 ГБ

В этой теме нет новых непрочитанных сообщений. Ледниковый период: Столкновение неизбежно (мультфильм, фантастика, комедия, приключения, семейный,2016) BDRip от ExKinoRay | iTunes

marya111

202 | 2

1.42 ГБ


Начать новую тему Ответить на тему  [ 1 сообщение ] 




Для Мосгорсуда, Роскомнадзора и рекламодателей:: mosgorsud-torrent[собачка]yandex.ru
cron