Торрент файл
скачать торрент магнет ссылка Добавлен: 23 май 2011, 20:45
Размер: 7.26 ГБ
Сидеров: 1
Личеров: 4
Автор

СообщениеДобавлено: 23 май 2011, 20:45 

Не в сети
Супермодератор
Аватара пользователя
Дата регистрации:
14 июн 2010, 21:00
Возраст: 29
Спасибо: 1341 / 1
Сообщения: 5611
Откуда: НиНО
Монстры против пришельцев / Monsters vs. AliensГод выпуска: 2009
Страна: США
Студия: DreamWorks Animation-Жанр: мультфильм, фантастика, боевик, комедия
Продолжительность: 01:34:22
Перевод: Профессиональный (дублированный)
Русские субтитры: нет-Режиссер: Роб Леттерман / Rob Letterman, Конрад Вернон / Conrad Vernon
В ролях: Риз Уизерспун, Сет Роген, Хью Лори, Уилл Арнетт, Кифер Сазерленд, Рэйн Уилсон, Стефен Колбер, Пол Радд, Джули Уайт, Джефри Тэмбор
Дублёры: Глюкоза, Виктор Логинов, Александр Ревва, Дмитрий Дюжев, Сергей Гармаш-Описание: В Сюзан Мёрфи, девушку из Калифорнии, прямо в день ее свадьбы попадает метеорит, полный всякой дряни из космоса, в результате чего она вдруг начинает расти и вырастает до пятнадцати метров. Встревоженные появлением нового монстра, военные сразу берутся за дело: Сюзан отлавливают и увозят на секретную правительственную базу. Там её переименовывают в Гигантику и запирают вместе с другими монстрами: гениальным, но насекомоголовым доктором наук Тараканом; брутальным рыбочеловеком по кличке Недостающее Звено; желеподобным и неубиваемым Б. О. Бом и стометровым Насекомозавром. Правда, их тюремное заключение длится недолго: на Землю нападает инопланетный робот, и отчаявшийся Президент, поддавшись уговорам генерала Воякера, отправляет разношерстную команду монстров на спасение планеты от неминуемой гибели.- | -Релиз группы:
-Качество: BDRip
Контейнер: MKV
Формат 3D: Half SideBySide / Горизонтальная анаморфная стереопара
Видео: 1920x1080, 23,976 кадр/сек, 9499 Кбит/с
Аудио №1: Русский: AC3, 640 kb/s (6 ch)
Аудио №2: Английский: AC3, 640 kb/s (6 ch)
Субтитры: Отсутствуют
MediaInfo
General
Complete name : E:\Monsters.vs.Aliens.3D.HSBS.BDRip.1080p.2009.mkv
Format : Matroska
File size : 7.26 GiB
Duration : 1h 34mn
Overall bit rate : 11.0 Mbps
Movie name : Monsters vs Aliens (2009)
Encoded date : UTC 2011-03-28 18:29:22
Writing application : mkvmerge v4.6.0 ('Still Crazy After All These Years') сборка от Mar 10 2011 02:50:32
Writing library : libebml v1.2.0 + libmatroska v1.1.0
Video
ID : 1
Format : AVC
Format/Info : Advanced Video Codec
Format profile : [email protected]
Format settings, CABAC : Yes
Format settings, ReFrames : 4 frames
Muxing mode : Container [email protected]
Codec ID : V_MPEG4/ISO/AVC
Duration : 1h 34mn
Bit rate : 9 499 Kbps
Nominal bit rate : 10 000 Kbps
Width : 1 920 pixels
Height : 1 080 pixels
Display aspect ratio : 16:9
Frame rate : 23.976 fps
Color space : YUV
Chroma subsampling : 4:2:0
Bit depth : 8 bits
Scan type : Progressive
Bits/(Pixel*Frame) : 0.191
Stream size : 6.27 GiB (86%)
Title : monsters.vs.aliens-1080p-SBS
Writing library : x264 core 104 r1677 19df41a
Encoding settings : cabac=1 / ref=1 / deblock=1:0:0 / analyse=0x3:0x113 / me=umh / subme=7 / psy=1 / psy_rd=1.00:0.00 / mixed_ref=0 / me_range=16 / chroma_me=1 / trellis=0 / 8x8dct=1 / cqm=0 / deadzone=21,11 / fast_pskip=1 / chroma_qp_offset=-2 / threads=3 / sliced_threads=0 / nr=0 / decimate=1 / interlaced=0 / constrained_intra=0 / bframes=3 / b_pyramid=2 / b_adapt=1 / b_bias=0 / direct=1 / weightb=1 / open_gop=0 / weightp=0 / keyint=250 / keyint_min=23 / scenecut=40 / intra_refresh=0 / rc_lookahead=40 / rc=abr / mbtree=1 / bitrate=10000 / ratetol=1.0 / qcomp=0.60 / qpmin=10 / qpmax=51 / qpstep=4 / ip_ratio=1.40 / aq=1:1.00
Language : English
Audio #1
ID : 2
Format : AC-3
Format/Info : Audio Coding 3
Mode extension : CM (complete main)
Codec ID : A_AC3
Duration : 1h 34mn
Bit rate mode : Constant
Bit rate : 640 Kbps
Channel(s) : 6 channels
Channel positions : Front: L C R, Side: L R, LFE
Sampling rate : 48.0 KHz
Bit depth : 16 bits
Video delay : 24ms
Stream size : 433 MiB (6%)
Language : Russian
Audio #2
ID : 3
Format : AC-3
Format/Info : Audio Coding 3
Mode extension : CM (complete main)
Muxing mode : Header stripping
Codec ID : A_AC3
Duration : 1h 34mn
Bit rate mode : Constant
Bit rate : 640 Kbps
Channel(s) : 6 channels
Channel positions : Front: L C R, Side: L R, LFE
Sampling rate : 48.0 KHz
Bit depth : 16 bits
Stream size : 433 MiB (6%)
Language : English
Скриншоты




Вернуться к началу
 Профиль Отправить личное сообщение  
 
   Похожие торренты   Автор   Торрент   Размер 
В этой теме нет новых непрочитанных сообщений. Монстры против пришельцев / Monsters vs Aliens [мультфильм, фантастика, боевик, 2009] BDRip-AVC, Dub

salma3

52 | 20

1.74 ГБ

В этой теме нет новых непрочитанных сообщений. Лига справедливости: Боги и монстры / Justice League: Gods and Monsters (Сэм Лью) [боевик, мультфильм, 2015] BDRip, Mvo

Dracon

794 | 69

1.45 ГБ

В этой теме нет новых непрочитанных сообщений. Монстры на свободе / Monsters at Large [Семейный, 2018] WEBRip, Dvo

salma3

10 | 1

1.34 ГБ

В этой теме нет новых непрочитанных сообщений. Монстры на свободе / Monsters at Large [Семейный, 2018] WEB-DLRip, Mvo

salma3

69 | 2

1.37 ГБ

В этой теме нет новых непрочитанных сообщений. Монстры на свободе / Monsters at Large [Семейный, 2018] WEBRip 720p, Dvo

salma3

2 | 0

3.17 ГБ

В этой теме нет новых непрочитанных сообщений. Боги и монстры / Gods and Monsters [Драма, биография, 1998] WEB-DLRip, Mvo

salma3

31 | 1

1.46 ГБ

В этой теме нет новых непрочитанных сообщений. Nat Geo Wild: Прирождённые монстры. Тигровая змея / Natural born monsters (2015) HDTVRip-AVC | P1

salma3

0 | 0

814.79 МБ


Начать новую тему Ответить на тему  [ 1 сообщение ] 




Для Мосгорсуда, Роскомнадзора и рекламодателей:: mosgorsud-torrent[собачка]yandex.ru
cron