Торрент файл
скачать торрент магнет ссылка Добавлен: 23 май 2011, 20:45
Размер: 3.95 ГБ
Сидеров: 10
Личеров: 5
Автор

СообщениеДобавлено: 23 май 2011, 20:45 

Не в сети
Супермодератор
Аватара пользователя
Дата регистрации:
14 июн 2010, 21:00
Возраст: 30
Спасибо: 1341 / 1
Сообщения: 5611
Откуда: НиНО
Космический спецназ Гарфилда 3Д / Garfield's Pet Force 3D Страна: США, Корея Южная
Жанр: комедия, семейный, мультфильм
Год выпуска: 2009
Продолжительность: 01:13:22
Перевод: Профессиональный (двухголосый закадровый)
Русские субтитры: нет
Режиссер: Марк А.З. Диппе / Mark A.Z. Dippé
Роли озвучивали: Грегг Бергер, Кэти Кавадини, Дженнифер Дарлинг, Грег Иглз, Грег Финли, Джефф Фишер, Ванесса Маршалл, Дэвид Мичи, Пейдж Поллак, Нил Росс
Описание: Всем известный кот-толстяк Гарфилд, большой любитель лазаньи, утраивает пикник со своими друзьями, но этот чудный день был испорчен непрошеными гостями. Оди и Нермал становятся супергероями, чтобы прогнать их, но Гарфилд не следует их примеру, ему просто лень. Но когда друзья оказываются в беде, кот понимает, что пришло время надеть маску героя.--Качество: BDrip
Формат: mkv
Формат 3D: Half SideBySide / Горизонтальная анаморфная стереопара
Порядок ракурсов: Параллельная пара
Видео кодек: x264
Аудио кодек: AC3, DTS
Видео: MPEG4 Video (H264) 1920x1080p 23.98fps 6579 Kbps
Аудио 1: Russian: AC3 48000Hz 2 ch 224 kbps
Аудио 2: English: DTS 48000Hz 5.1 ch 755kbps
me
Format : Matroska
File size : 3.95 GiB
Duration : 1h 13mn
Overall bit rate : 7 710 Kbps
Encoded date : UTC 2011-04-02 16:54:37
Writing application : mkvmerge v2.9.7 ('Tenderness') built on Jul 1 2009 18:43:35
Writing library : libebml v0.7.7 + libmatroska v0.8.1
Video
ID : 1
Format : AVC
Format/Info : Advanced Video Codec
Format profile : [email protected]
Format settings, CABAC : Yes
Format settings, ReFrames : 4 frames
Muxing mode : Container [email protected]
Codec ID : V_MPEG4/ISO/AVC
Duration : 1h 13mn
Bit rate : 6 579 Kbps
Width : 1 920 pixels
Height : 1 080 pixels
Display aspect ratio : 16:9
Frame rate : 23.976 fps
Color space : YUV
Chroma subsampling : 4:2:0
Bit depth : 8 bits
Scan type : Progressive
Bits/(Pixel*Frame) : 0.132
Stream size : 3.37 GiB (85%)
Writing library : x264 core 114 r1924 08d04a4
Encoding settings : cabac=1 / ref=4 / deblock=1:-1:-1 / analyse=0x3:0x113 / me=umh / subme=9 / psy=1 / psy_rd=1.00:0.15 / mixed_ref=1 / me_range=16 / chroma_me=1 / trellis=1 / 8x8dct=1 / cqm=0 / deadzone=21,11 / fast_pskip=1 / chroma_qp_offset=-3 / threads=18 / sliced_threads=0 / nr=0 / decimate=1 / interlaced=0 / constrained_intra=0 / bframes=3 / b_pyramid=2 / b_adapt=1 / b_bias=0 / direct=3 / weightb=1 / open_gop=0 / weightp=2 / keyint=250 / keyint_min=23 / scenecut=40 / intra_refresh=0 / rc_lookahead=40 / rc=crf / mbtree=1 / crf=18.0 / qcomp=0.60 / qpmin=10 / qpmax=69 / qpstep=4 / ip_ratio=1.40 / aq=1:1.00
Language : English
Audio #1
ID : 2
Format : AC-3
Format/Info : Audio Coding 3
Mode extension : CM (complete main)
Codec ID : A_AC3
Duration : 1h 13mn
Bit rate mode : Constant
Bit rate : 224 Kbps
Channel(s) : 2 channels
Channel positions : Front: L R
Sampling rate : 48.0 KHz
Bit depth : 16 bits
Stream size : 118 MiB (3%)
Language : Russian
Audio #2
ID : 3
Format : DTS
Format/Info : Digital Theater Systems
Codec ID : A_DTS
Duration : 1h 13mn
Bit rate mode : Constant
Bit rate : 755 Kbps
Channel(s) : 6 channels
Channel positions : Front: L C R, Side: L R, LFE
Sampling rate : 48.0 KHz
Bit depth : 24 bits
Stream size : 396 MiB (10%)
Language : English
Скриншоты



Вернуться к началу
 Профиль Отправить личное сообщение  
 
   Похожие торренты   Автор   Торрент   Размер 
В этой теме нет новых непрочитанных сообщений. Гарфилд / Garfield [мультфильм, фэнтези, семейный, 2004] BDRip-AVC, Dub+Sub

salma3

69 | 29

1.47 ГБ

В этой теме нет новых непрочитанных сообщений. Вэлиант: Пернатый спецназ / Valiant [мультфильм, комедия, приключения, семейный, военный, 2005] BDRip 1080p, Dub

salma3

27 | 8

4.37 ГБ

В этой теме нет новых непрочитанных сообщений. Кунг-фу Панда:Трилогия / Kung Fu Panda:Trilogy (Марк Осборн, Джон Стивенсон,Алессандро Карлони, Дженнифер Ю) [2008-2016, Мультфильм, боевик, комедия, приключения, семейный , BDRip 1080p] [DD5.1] [Dub Rus , Ukr , Eng]+[Sub Rus , Ukr , Eng][

Враг Нароода

3 | 7

27.41 ГБ

В этой теме нет новых непрочитанных сообщений. О девушке / About a Girl (Марк Монхайм / Mark Monheim) [2014г., Германия, мелодрама, комедия, HDTVRip] sub

Alfredovich

2 | 1

358.12 МБ

В этой теме нет новых непрочитанных сообщений. Космический полицейский / Space Cop [фантастика, боевик, комедия, 2016] BDRip 720p, Dvo

salma3

922 | 150

4.27 ГБ

В этой теме нет новых непрочитанных сообщений. Безумный спецназ / The Men Who Stare at Goats [Комедия, приключения, экранизация, 2009] BDRemux 1080p, Dub

salma3

0 | 0

24.48 ГБ

В этой теме нет новых непрочитанных сообщений. Зверопой / Sing [мультфильм, комедия, семейный, 2016] BDRip-AVC, Dub+Sub [Лицензия]

salma3

832 | 261

2.02 ГБ


Начать новую тему Ответить на тему  [ 1 сообщение ] 




Для Мосгорсуда, Роскомнадзора и рекламодателей:: mosgorsud-torrent[собачка]yandex.ru
cron