Торрент файл
скачать торрент магнет ссылка Добавлен: 23 май 2011, 20:45
Размер: 7.9 ГБ
Сидеров: 1
Личеров: 4
Автор

СообщениеДобавлено: 23 май 2011, 20:45 

Не в сети
Супермодератор
Аватара пользователя
Дата регистрации:
14 июн 2010, 21:00
Возраст: 29
Спасибо: 1341 / 1
Сообщения: 5611
Откуда: НиНО
Легенды ночных стражей 3D / Legend of the Guardians: The Owls of Ga’Hoole 3D-«On his way to finding a legend...he will become one.»-Год выпуска: 2010
Страна: США, Австралия
Студия: Animal Logic, Village Roadshow Pictures, Warner Bros. Pictures
Жанр: Мультфильм, Фэнтези, Приключения
Продолжительность: 01:36:44
Перевод: полное дублирование
Русские субтитры: есть
Режиссер на русском: Зак Снайдер
Режиссер на английском: Zack Snyder
Роли озвучивали: Джим Стерджесс, Джоэл Эдгертон, Хьюго Уивинг, Эдриэнн ДеФариа, Ричард Роксбург, Дэвид Уэнэм, Хелен Миррен, Мириам Марголис, Сэм Нил, Джеффри Раш-Описание:
Миром, в котором уже не осталось людей, правят совы… добрые… злые… как и всегда! В волшебном лесу — королевстве сов Тито — на Великом Дереве Га`Хуул, где разумные совы живут в гармонии, наступают мрачные времена. Королевство подвергается страшной опасности со стороны соседних жестоких правителей, и эта опасность грозит уничтожить привычное мироздание.-
http://www.kinopoisk.ru/level/1/film/409776/
Семпл
Качество: BDrip
Контейнер: MKV
Формат 3D: Half SideBySide / Горизонтальная анаморфная стереопара
Порядок ракурсов: левый ракурс первый
Видео кодек: x264
Аудио кодек: AC3
Видео: MPEG4 Video (H264), 1920x1080, 23.976 fps, ~10000 Kbps
Аудио: Русский (полное дублирование), AC3, 6 ch, 48 kHz, 384 kbps
Аудио 2: Английский, DTS, 6 ch, 48 kHz, 1510 Kbps
Субтитры: Русские, Английские
О Форматах и методах просмотра 3D, общий FAQ
MediaInfo
Общее
Уникальный идентификатор : 231441609262020386215689068002736463089 (0xAE1E0856364081A7B1691BC01F6DDCF1)
Полное имя : Legend of the Guardians 3D (2010) BDRip.mkv
Формат : Matroska
Размер файла : 7,90 Гбайт
Продолжительность : 1 ч. 36 м.
Общий поток : 11,7 Мбит/сек
Дата кодирования : UTC 2011-01-21 10:33:56
Программа кодирования : mkvmerge v4.4.0 ('Die Wiederkehr') сборка от Oct 31 2010 21:52:48
Библиотека кодирования : libebml v1.0.0 + libmatroska v1.0.0
Видео
Идентификатор : 1
Формат : AVC
Формат/Информация : Advanced Video Codec
Профиль формата : [email protected]
Параметр CABAC формата : Да
Параметр ReFrames формата : 4 кадры
Режим смешивания : Header stripping
Идентификатор кодека : V_MPEG4/ISO/AVC
Продолжительность : 1 ч. 36 м.
Битрейт : 10000 Кбит/сек
Ширина : 1920 пикс.
Высота : 1080 пикс.
Соотношение сторон : 16:9
Режим частоты кадров : Переменный
Частота кадров : 23,976 кадр/сек
Цветовое пространство : YUV
Подвыборка цветности : 4:2:0
Битовая глубина : 8 бит
Тип развёртки : Прогрессивная
Бит/(Пиксели*Кадры) : 0.201
Размер потока : 6,46 Гбайт (82%)
Библиотека кодирования : x264 core 107 r1745 4785e8e
Настройки программы : cabac=1 / ref=3 / deblock=1:0:0 / analyse=0x3:0x113 / me=hex / subme=7 / psy=1 / psy_rd=1.00:0.00 / mixed_ref=1 / me_range=16 / chroma_me=1 / trellis=1 / 8x8dct=1 / cqm=0 / deadzone=21,11 / fast_pskip=1 / chroma_qp_offset=-2 / threads=6 / sliced_threads=0 / nr=0 / decimate=1 / interlaced=0 / constrained_intra=0 / bframes=3 / b_pyramid=2 / b_adapt=1 / b_bias=0 / direct=1 / weightb=1 / open_gop=0 / weightp=2 / keyint=250 / keyint_min=25 / scenecut=40 / intra_refresh=0 / rc_lookahead=40 / rc=abr / mbtree=1 / bitrate=10000 / ratetol=1.0 / qcomp=0.60 / qpmin=10 / qpmax=51 / qpstep=4 / ip_ratio=1.41 / aq=1:1.00
Аудио #1
Идентификатор : 2
Формат : AC-3
Формат/Информация : Audio Coding 3
Расширение режима : CM (complete main)
Режим смешивания : Header stripping
Идентификатор кодека : A_AC3
Продолжительность : 1 ч. 36 м.
Вид битрейта : Постоянный
Битрейт : 384 Кбит/сек
Канал(ы) : 6 канала(ов)
Расположение каналов : Front: L C R, Side: L R, LFE
Частота : 48,0 КГц
Битовая глубина : 16 бит
Метод сжатия : С потерями
Размер потока : 266 Мбайт (3%)
Заголовок : Дублированное
Язык : Russian
Аудио #2
Идентификатор : 3
Формат : DTS
Формат/Информация : Digital Theater Systems
Режим смешивания : Header stripping
Идентификатор кодека : A_DTS
Продолжительность : 1 ч. 36 м.
Вид битрейта : Постоянный
Битрейт : 1510 Кбит/сек
Канал(ы) : 6 канала(ов)
Расположение каналов : Front: L C R, Side: L R, LFE
Частота : 48,0 КГц
Битовая глубина : 24 бит
Метод сжатия : С потерями
Размер потока : 1,02 Гбайт (13%)
Язык : English
Текст #1
Идентификатор : 4
Формат : UTF-8
Идентификатор кодека : S_TEXT/UTF8
Идентификатор кодека/Информация : UTF-8 Plain Text
Язык : Russian
Текст #2
Идентификатор : 5
Формат : UTF-8
Идентификатор кодека : S_TEXT/UTF8
Идентификатор кодека/Информация : UTF-8 Plain Text
Язык : English
Скриншоты
JPG
Скриншоты в анаглифе
Резервные скриншоты
imageshack.us

imagebam

radikal.ru




Вернуться к началу
 Профиль Отправить личное сообщение  
 
   Похожие торренты   Автор   Торрент   Размер 
В этой теме нет новых непрочитанных сообщений. Мой маленький пони: Девочки из Эквестрии - Легенды вечнозеленого леса / My Little Pony: Equestria Girls - Legend of Everfree [приключения, семейный, фэнтези, 2016] WEB-DLRip 1080p, Dub [Карусель]

salma3

411 | 40

2.95 ГБ

В этой теме нет новых непрочитанных сообщений. Городские легенды / Urban Legend [Триллер, Детектив, 1998] BDRip-AVC, Mvo

salma3

8 | 4

2.17 ГБ

В этой теме нет новых непрочитанных сообщений. Меч короля Артура / King Arthur: Legend of the Sword [фэнтези, боевик, драма, приключения, 2017] BDRip, Dub [Лицензия]

salma3

578 | 61

1.46 ГБ

В этой теме нет новых непрочитанных сообщений. Меч короля Артура / King Arthur: Legend of the Sword [фэнтези, боевик, драма, приключения, 2017] BDRip-AVC, Dub [iTunes]

salma3

1669 | 236

1.45 ГБ

В этой теме нет новых непрочитанных сообщений. Меч короля Артура / King Arthur: Legend of the Sword [фэнтези, боевик, драма, приключения, 2017] BDRip-AVC, Dub [Лицензия]

salma3

1915 | 154

2.18 ГБ

В этой теме нет новых непрочитанных сообщений. Меч короля Артура / King Arthur: Legend of the Sword [фэнтези, боевик, драма, приключения, 2017] BDRip 720p, Dub [Лицензия]

salma3

82 | 9

5.37 ГБ

В этой теме нет новых непрочитанных сообщений. Меч короля Артура / King Arthur: Legend of the Sword [фэнтези, боевик, драма, приключения, 2017] BDRip 1080p, Dub [iTunes]

salma3

13670 | 8859

9.52 ГБ


Начать новую тему Ответить на тему  [ 1 сообщение ] 




Для Мосгорсуда, Роскомнадзора и рекламодателей:: mosgorsud-torrent[собачка]yandex.ru
cron