Торрент файл
скачать торрент магнет ссылка Добавлен: 23 май 2011, 20:45
Размер: 3.08 ГБ
Сидеров: 2
Личеров: 5
Автор

СообщениеДобавлено: 23 май 2011, 20:45 

Не в сети
Супермодератор
Аватара пользователя
Дата регистрации:
14 июн 2010, 21:00
Возраст: 30
Спасибо: 1341 / 1
Сообщения: 5611
Откуда: НиНО
История игрушек 3: Большой побег/ Toy Story 3: The Great Escape
Год выпуска: 2010
Страна: США
Студия:
Жанр: фэнтези, комедия, приключения, семейный, мультфильм
Продолжительность: 01:37:54
Перевод: Профессиональный (дублированный)
Русские субтитры: есть
Режиссер на русском: Ли Анкрич
Режиссер на английском: Lee UnkrichРоли озвучивали: Александр Баргман, Станислав Концевич, Юлия Рудина, Сергей Паршин, Артур Ваха, Николай Басков, Валерий Захарьев, Алексей Гурьев, Лидия Мельникова, Антон Горчаков / Tom Hanks, Tim Allen, Joan Cussack, Ned Beatty, Don Rickles, Michael Keaton, Wallace Shawn, John Ratzenberger, Estelle Harris, John Morris
Описание: Энди уже 17 лет, и его игрушки, с которыми он не играл в течение многих лет, чувствуют себя забытыми и заброшенными. Энди уезжает учиться в колледж и решает взять Вуди с собой, а другие игрушки отправить на чердак. Но случается так, что игрушки по ошибке попадают в детский сад. Скоро игрушки привыкают и радуются новому месту, где есть много других игрушек, и только Вуди тоскует по Энди и пытается убежать из детсада...
Дополнительная информация:
Русская дорожка и субтитры взяты отсюда и приведены в соответствие с данной раздачей.
Данный рип совместим с бытовыми плеерами стандартного разрешения PAL (720x576), однако там, где это возможно (в частности, при использовании компютерных плееров Windows Media Player, Media Player Classic, VLC и др. со стандартными установками) кадр будет расширен до 1048x576, согласно стандарту PAL 16:9 (см. в Википедии).
Я постарался учесть комментарии (высказанные в других темах) по поводу качества готового анаглифа, однако, ввиду низкого разрешения данного рипа, для просмотра на компьютере с достаточно быстрым процессором и хорошей видео-картой рекомендуется использовать стереопару из этого релиза.Сэмпл (32MB): http://multi-up.com/483430
Качество: HDRip
Контейнер: AVI
Формат 3D: Анаглиф cyan-red
Видео кодек: Divx
Аудио кодек: AC3
Видео: DivX5, ~3600 Kbps, 720x576 (16:9), 25 fps (PAL)
Аудио 1: AC-3, 448 Кbps, 48 KHz, 16 bits, 6 ch, Русский
Аудио 2: AC-3, 448 Кbps, 48 KHz, 16 bits, 6 ch, English
Субтитры: ENG, ENG forced, RUS, RUS forced, UKR, UKR forced
MediaInfo
General
Complete name : H:\Downloads\Toy.Story.3D.(2010).Anaglyph(Red-Cyan)\Toy.Story-3.3D.(2010).720x480RC.rus+eng.avi
Format : AVI
Format/Info : Audio Video Interleave
File size : 3.08 GiB
Duration : 1h 38mn
Overall bit rate : 4 461 Kbps
Video
ID : 0
Format : MPEG-4 Visual
Format settings, BVOP : Yes
Format settings, QPel : No
Format settings, GMC : No warppoints
Format settings, Matrix : Default (H.263)
Codec ID : DX50
Codec ID/Hint : DivX 5
Duration : 1h 37mn
Bit rate : 3 592 Kbps
Width : 720 pixels
Height : 576 pixels
Display aspect ratio : 16:9
Frame rate : 25.000 fps
Standard : PAL
Color space : YUV
Chroma subsampling : 4:2:0
Bit depth : 8 bits
Scan type : Progressive
Bits/(Pixel*Frame) : 0.346
Stream size : 2.46 GiB (80%)
Writing library : DivX 6.8.5 (UTC 2009-08-20)
Audio #1
ID : 1
Format : AC-3
Format/Info : Audio Coding 3
Mode extension : CM (complete main)
Codec ID : 2000
Duration : 1h 37mn
Bit rate mode : Constant
Bit rate : 448 Kbps
Channel(s) : 6 channels
Channel positions : Front: L C R, Side: L R, LFE
Sampling rate : 48.0 KHz
Bit depth : 16 bits
Stream size : 314 MiB (10%)
Alignment : Aligned on interleaves
Interleave, duration : 40 ms (1.00 video frame)
Audio #2
ID : 2
Format : AC-3
Format/Info : Audio Coding 3
Mode extension : CM (complete main)
Codec ID : 2000
Duration : 1h 38mn
Bit rate mode : Constant
Bit rate : 448 Kbps
Channel(s) : 6 channels
Channel positions : Front: L C R, Side: L R, LFE
Sampling rate : 48.0 KHz
Bit depth : 16 bits
Stream size : 314 MiB (10%)
Alignment : Aligned on interleaves
Interleave, duration : 40 ms (1.00 video frame)
Скриншоты (как есть)

Скриншоты (расширенные)




Вернуться к началу
 Профиль Отправить личное сообщение  
 
   Похожие торренты   Автор   Торрент   Размер 
В этой теме нет новых непрочитанных сообщений. История игрушек 2 / Toy Story 2 [мультфильм, фэнтези, комедия, 1999] BDRip 1080p, Dub

salma3

28 | 11

4.37 ГБ

В этой теме нет новых непрочитанных сообщений. Мы вернулись! История динозавра / We're Back! A Dinosaur's Story [мультфильм, фэнтези, приключения, семейный, 1993] BDRip 720p, Mvo

salma3

21 | 10

7.62 ГБ

В этой теме нет новых непрочитанных сообщений. Побег из Атлантиды / Escape from Atlantis [фэнтези, комедия, приключения, 1997] SATRip, Mvo

salma3

92 | 23

1.56 ГБ

В этой теме нет новых непрочитанных сообщений. Побег из Атлантиды / Escape from Atlantis [Фэнтези, фантастика, приключения, 1997] VHSRip, Dvo

salma3

0 | 0

1.45 ГБ

В этой теме нет новых непрочитанных сообщений. Бесконечная история 2: Новая глава / The NeverEnding Story II: The Next Chapter [фэнтези, приключения, семейный, 1990] BDRip 1080p, Mvo

salma3

40 | 19

6.67 ГБ

В этой теме нет новых непрочитанных сообщений. Побег заключённого 614 / The Escape of Prisoner 614 [комедия, криминал, приключения, 2018] WEBDLRip, Mvo

salma3

496 | 77

1.37 ГБ

В этой теме нет новых непрочитанных сообщений. Побег заключённого 614 / The Escape of Prisoner 614 [Комедия, криминал, приключения, 2018] BDRip, Mvo

salma3

359 | 23

1.46 ГБ


Начать новую тему Ответить на тему  [ 1 сообщение ] 




Для Мосгорсуда, Роскомнадзора и рекламодателей:: mosgorsud-torrent[собачка]yandex.ru
cron