Торрент файл
скачать торрент магнет ссылка Добавлен: 23 май 2011, 20:44
Размер: 7.52 ГБ
Сидеров: 2
Личеров: 4
Автор

СообщениеДобавлено: 23 май 2011, 20:44 

Не в сети
Супермодератор
Аватара пользователя
Дата регистрации:
14 июн 2010, 21:00
Возраст: 30
Спасибо: 1341 / 1
Сообщения: 5611
Откуда: НиНО
История игрушек 3: Большой побег 3Д / Toy Story 3: The Great Escape 3D
Год выпуска: 2010
Страна: США
Студия:
Жанр: фэнтези, комедия, приключения, семейный, мультфильм
Продолжительность: 01:37:54
Перевод: Профессиональный (дублированный)
Русские субтитры: есть
Режиссер на русском: Ли Анкрич
Режиссер на английском: Lee UnkrichРоли озвучивали: Александр Баргман, Станислав Концевич, Юлия Рудина, Сергей Паршин, Артур Ваха, Николай Басков, Валерий Захарьев, Алексей Гурьев, Лидия Мельникова, Антон Горчаков / Tom Hanks, Tim Allen, Joan Cussack, Ned Beatty, Don Rickles, Michael Keaton, Wallace Shawn, John Ratzenberger, Estelle Harris, John Morris
Описание: Энди уже 17 лет, и его игрушки, с которыми он не играл в течение многих лет, чувствуют себя забытыми и заброшенными. Энди решает взять Вуди с ним в колледж, а другие игрушки отправить на чердак. Но случается так, что игрушки по ошибке попадают в детский сад. Скоро игрушки привыкают и радуются новому месту, где есть много других игрушек, и только Вуди тоскует по Энди и пытается убежать из детсада...
Дополнительная информация Русская дорожка и субтитры взяты отсюда и приведены в соответствие с данной раздачей. Для проигрывания на компьютере рекомендуется Stereoscopic Player (обратите внимание на порядок ракурсов!). Указания по использованию Stereoscopic Player с субтитрами содержатся в этой теме.
Сэмпл: http://multi-up.com/479046
Качество: HDTVrip
Контейнер: MKV
Формат 3D: Half SideBySide / Горизонтальная анаморфная стереопара
Порядок ракурсов: правый ракурс первый
Видео кодек: x264
Аудио кодек: AC3
Видео: AVC, 1920x1080p (16:9), 9786 Kbps, 25fps
Аудио: AC-3, 448 Кbps, 48KHz, 16bits, 6ch, Русский
Аудио 2: AC-3, 448 Кbps, 48KHz, 16bits, 6ch, English
Субтитры: ENG, ENG forced, RUS, RUS forced, UKR, UKR forced
MediaInfo
General
Complete name : H:\Downloads\Toy.Story-3.3D.rus+eng.mkv
Format : Matroska
File size : 7.52 GiB
Duration : 1h 38mn
Overall bit rate : 10.9 Mbps
Encoded date : UTC 2011-04-25 11:52:12
Writing application : mkvmerge v4.6.0 ('Still Crazy After All These Years') built on Mar 10 2011 02:50:32
Writing library : libebml v1.2.0 + libmatroska v1.1.0
Video
ID : 1
Format : AVC
Format/Info : Advanced Video Codec
Format profile : [email protected]
Format settings, CABAC : Yes
Format settings, ReFrames : 4 frames
Muxing mode : Header stripping
Codec ID : V_MPEG4/ISO/AVC
Duration : 1h 38mn
Bit rate : 9 786 Kbps
Width : 1 920 pixels
Height : 1 080 pixels
Display aspect ratio : 16:9
Frame rate : 25.000 fps
Original frame rate : 23.976 fps
Color space : YUV
Chroma subsampling : 4:2:0
Bit depth : 8 bits
Scan type : Progressive
Bits/(Pixel*Frame) : 0.189
Stream size : 6.75 GiB (90%)
Title : Video
Writing library : x264 core 114 r1924 08d04a4
Encoding settings : cabac=1 / ref=4 / deblock=1:-1:-1 / analyse=0x3:0x113 / me=umh / subme=9 / psy=1 / psy_rd=1.00:0.15 / mixed_ref=1 / me_range=16 / chroma_me=1 / trellis=1 / 8x8dct=1 / cqm=0 / deadzone=21,11 / fast_pskip=1 / chroma_qp_offset=-3 / threads=12 / sliced_threads=0 / nr=0 / decimate=1 / interlaced=0 / constrained_intra=0 / bframes=3 / b_pyramid=2 / b_adapt=1 / b_bias=0 / direct=3 / weightb=1 / open_gop=0 / weightp=2 / keyint=250 / keyint_min=23 / scenecut=40 / intra_refresh=0 / rc_lookahead=40 / rc=crf / mbtree=1 / crf=17.0 / qcomp=0.60 / qpmin=10 / qpmax=69 / qpstep=4 / ip_ratio=1.40 / aq=1:1.00
Language : English
Audio #1
ID : 2
Format : AC-3
Format/Info : Audio Coding 3
Mode extension : CM (complete main)
Muxing mode : Header stripping
Codec ID : A_AC3
Duration : 1h 38mn
Bit rate mode : Constant
Bit rate : 448 Kbps
Channel(s) : 6 channels
Channel positions : Front: L C R, Side: L R, LFE
Sampling rate : 48.0 KHz
Bit depth : 16 bits
Stream size : 317 MiB (4%)
Title : Русский
Language : Russian
Audio #2
ID : 3
Format : AC-3
Format/Info : Audio Coding 3
Mode extension : CM (complete main)
Muxing mode : Header stripping
Codec ID : A_AC3
Duration : 1h 38mn
Bit rate mode : Constant
Bit rate : 448 Kbps
Channel(s) : 6 channels
Channel positions : Front: L C R, Side: L R, LFE
Sampling rate : 48.0 KHz
Bit depth : 16 bits
Stream size : 317 MiB (4%)
Title : English
Language : English
Скриншоты (как есть)

Скриншоты (анаглиф red-cyan)




Вернуться к началу
 Профиль Отправить личное сообщение  
 
   Похожие торренты   Автор   Торрент   Размер 
В этой теме нет новых непрочитанных сообщений. История игрушек 2 / Toy Story 2 [мультфильм, фэнтези, комедия, 1999] BDRip 1080p, Dub

salma3

28 | 11

4.37 ГБ

В этой теме нет новых непрочитанных сообщений. Мы вернулись! История динозавра / We're Back! A Dinosaur's Story [мультфильм, фэнтези, приключения, семейный, 1993] BDRip 720p, Mvo

salma3

21 | 10

7.62 ГБ

В этой теме нет новых непрочитанных сообщений. Побег из Атлантиды / Escape from Atlantis [фэнтези, комедия, приключения, 1997] SATRip, Mvo

salma3

92 | 23

1.56 ГБ

В этой теме нет новых непрочитанных сообщений. Побег невозможен / No Escape / Escape from absolom [Фантастика, боевик, триллер, 1994] HDTVRip 720p, Mvo

salma3

0 | 0

4.37 ГБ

В этой теме нет новых непрочитанных сообщений. Побег из Атлантиды / Escape from Atlantis [Фэнтези, фантастика, приключения, 1997] VHSRip, Dvo

salma3

0 | 0

1.45 ГБ

В этой теме нет новых непрочитанных сообщений. Бесконечная история 2: Новая глава / The NeverEnding Story II: The Next Chapter [фэнтези, приключения, семейный, 1990] BDRip 1080p, Mvo

salma3

40 | 19

6.67 ГБ

В этой теме нет новых непрочитанных сообщений. Побег заключённого 614 / The Escape of Prisoner 614 [комедия, криминал, приключения, 2018] WEBDLRip, Mvo

salma3

496 | 77

1.37 ГБ


Начать новую тему Ответить на тему  [ 1 сообщение ] 




Для Мосгорсуда, Роскомнадзора и рекламодателей:: mosgorsud-torrent[собачка]yandex.ru
cron