Торрент файл
скачать торрент магнет ссылка Добавлен: 23 май 2011, 20:44
Размер: 1.47 ГБ
Сидеров: 8
Личеров: 6
Автор

СообщениеДобавлено: 23 май 2011, 20:44 

Не в сети
Супермодератор
Аватара пользователя
Дата регистрации:
14 июн 2010, 21:00
Возраст: 29
Спасибо: 1341 / 1
Сообщения: 5611
Откуда: НиНО
Легенды ночных стражей 3Д / Legend of the Guardians: The Owls of Ga’Hoole 3D
Год выпуска: 2010
Страна: США
Жанр: фэнтези, приключения, мультфильм
Продолжительность: 01:36:48
Перевод: Профессиональный (дублированный)
Русские субтитры: нет
Режиссер: Зак Снайдер
Роли озвучивали: Джим Стерджесс, Джоэл Эдгертон, Хьюго Уивинг, Эдриэнн ДеФариа, Ричард Роксбург, Дэвид Уэнэм, Хелен Миррен, Мириам Марголис, Сэм Нил, Джеффри Раш
Описание: Миром, в котором уже не осталось людей, правят совы… добрые… злые… как и всегда! В волшебном лесу - королевстве сов Тито - на Великом Дереве Га`Хуул, где разумные совы живут в гармонии, наступают мрачные времена. Королевство подвергается страшной опасности со стороны соседних жестоких правителей, и эта опасность грозит уничтожить привычное мироздание.
Бонусы: отсутствуют
Качество: BDrip
Контейнер: AVI
Формат 3D: Анаглиф red-cyan
Видео кодек: xVid
Аудио кодек: MP3
Видео: Xvid 1280x720 25.00fps ~ 2128 kbps
Аудио: MPEG Audio Layer 3 48000Hz stereo 192kbps
Субтитры: нет
Скриншоты
mi
Format : AVI
Format/Info : Audio Video Interleave
File size : 1.47 GiB
Duration : 1h 36mn
Overall bit rate : 2 180 Kbps
Video
ID : 0
Format : MPEG-4 Visual
Format profile : [email protected]
Format settings, BVOP : No
Format settings, QPel : No
Format settings, GMC : No warppoints
Format settings, Matrix : Default (H.263)
Codec ID : XVID
Codec ID/Hint : XviD
Duration : 1h 36mn
Bit rate : 1 975 Kbps
Width : 1 280 pixels
Height : 720 pixels
Display aspect ratio : 16:9
Frame rate : 25.000 fps
Color space : YUV
Chroma subsampling : 4:2:0
Bit depth : 8 bits
Scan type : Progressive
Bits/(Pixel*Frame) : 0.086
Stream size : 1.33 GiB (91%)
Writing library : XviD 1.2.1 (UTC 2008-12-04)
Audio
ID : 1
Format : MPEG Audio
Format version : Version 1
Format profile : Layer 3
Codec ID : 55
Codec ID/Hint : MP3
Duration : 1h 36mn
Bit rate mode : Constant
Bit rate : 192 Kbps
Channel(s) : 2 channels
Sampling rate : 48.0 KHz
Stream size : 133 MiB (9%)
Alignment : Split accross interleaves
Interleave, duration : 24 ms (0.60 video frame)



Вернуться к началу
 Профиль Отправить личное сообщение  
 
   Похожие торренты   Автор   Торрент   Размер 
В этой теме нет новых непрочитанных сообщений. Мой маленький пони: Девочки из Эквестрии - Легенды вечнозеленого леса / My Little Pony: Equestria Girls - Legend of Everfree [приключения, семейный, фэнтези, 2016] WEB-DLRip 1080p, Dub [Карусель]

salma3

411 | 40

2.95 ГБ

В этой теме нет новых непрочитанных сообщений. Меч короля Артура / King Arthur: Legend of the Sword [фэнтези, боевик, драма, приключения, 2017] BDRip 720p, Dub [Лицензия]

salma3

82 | 9

5.37 ГБ

В этой теме нет новых непрочитанных сообщений. Городские легенды / Urban Legend [Триллер, Детектив, 1998] BDRip-AVC, Mvo

salma3

8 | 4

2.17 ГБ

В этой теме нет новых непрочитанных сообщений. Стражи Галактики. Часть 2 / Guardians of the Galaxy Vol. 2 [Фантастика, боевик, приключения, 2017] BDRip 720p, Dub [Лицензия]

salma3

4 | 4

7.73 ГБ

В этой теме нет новых непрочитанных сообщений. Большой и дружелюбный великан / The BFG [Мультфильм, фэнтези, приключения, 1989] BDRip 720p, Avo

salma3

11 | 10

5.04 ГБ

В этой теме нет новых непрочитанных сообщений. Трон эльфов / Throne of Elves [Мультфильм, фэнтези, приключения, 2016] BDRip 720p, Dub [iTunes]

salma3

0 | 0

2.75 ГБ

В этой теме нет новых непрочитанных сообщений. Оз: Нашествие летучих обезьян / Guardianes de Oz (Альберто Мар) [мультфильм, фэнтези, приключения, 2015] BDRip 720p, Dub [Лицензия]

Dracon

20 | 1

2.63 ГБ


Начать новую тему Ответить на тему  [ 1 сообщение ] 




Для Мосгорсуда, Роскомнадзора и рекламодателей:: mosgorsud-torrent[собачка]yandex.ru
cron