Торрент файл
скачать торрент магнет ссылка Добавлен: 23 май 2011, 20:44
Размер: 3.95 ГБ
Сидеров: 1
Личеров: 4
Автор

СообщениеДобавлено: 23 май 2011, 20:44 

Не в сети
Супермодератор
Аватара пользователя
Дата регистрации:
14 июн 2010, 21:00
Возраст: 30
Спасибо: 1341 / 1
Сообщения: 5611
Откуда: НиНО
Гномео и Джульетта 3D / Gnomeo and Juliet 3D
-Год выпуска: 2011
Страна: США, Великобритания
Студия: Walt Disney Pictures, Rocket Pictures, Starz Anima
Жанр: мультфильм, фэнтези, мелодрама, комедия
Продолжительность: 01:23:50
Перевод: Профессиональный (дублированный) [звук с TS]
Русские субтитры: нет-Режиссер: Келли Эсбёри / Kelly Asbury-Роли озвучивали: Джеймс МакЭвой, Эмили Блант, Эшли Дженсен, Майкл Кейн, Мэтт Лукас, Джим Каммингс, Мэгги Смит, Джейсон Стэтхэм, Оззи Осборн, Стефен Мерчант, Джули Уолтерс, Халк Хоган.-Роли дублировали: Прохор Чеховской, Лина Иванова, Ирина Савина, Борис Клюев, Александр Незлобин, Тимур Родригез, Светлана Харлап, Владимир Зайцев, Александр Ревва, Сергей Бурунов, Людмила Гнилова, Вячеслав Баранов.-Описание: Интерпретация пьесы Уильяма Шекспира, в которой противоборствуют семьи садовых гномов и гномов домашних.- -Качество: BDrip 1080p
Контейнер: MKV
Формат 3D: Half OverUnder / Вертикальная анаморфная стереопара
Видео кодек: x264
Аудио кодек: MP3, AC3
Видео: AVC / 1920х1080p / 23,976 fps / 5 834 Kbps
Аудио #1: 48 KHz, MPEG Audio Layer 3, 2 ch, ~128.00 kbps avg [звук с TS]
Аудио #2: 48 kHz, AC3 Dolby Digital, 3/2 (L,C,R,l,r) + LFE ch, ~640.00 kbps avg
Скачать: Сэмпл-
MediaInfo
General
Complete name : F:\Downloads\Gnomeo&Juliet.am.ts.mkv
Format : Matroska
File size : 3.95 GiB
Duration : 1h 23mn
Overall bit rate : 6 736 Kbps
Encoded date : UTC 2011-05-12 08:15:17
Writing application : mkvmerge v3.4.0 ('Rapunzel') сборка от May 15 2010 09:38:20
Writing library : libebml v0.8.0 + libmatroska v0.9.0
Video
ID : 1
Format : AVC
Format/Info : Advanced Video Codec
Format profile : [email protected]
Format settings, CABAC : Yes
Format settings, ReFrames : 4 frames
Codec ID : V_MPEG4/ISO/AVC
Duration : 1h 23mn
Bit rate : 5 834 Kbps
Width : 1 920 pixels
Height : 1 080 pixels
Display aspect ratio : 0.889
Original display aspect ratio : 16:9
Frame rate : 23.976 fps
Color space : YUV
Chroma subsampling : 4:2:0
Bit depth : 8 bits
Scan type : Progressive
Bits/(Pixel*Frame) : 0.117
Stream size : 3.42 GiB (87%)
Title : Rip by ash61
Writing library : x264 core 113 r1884 7313bb5
Encoding settings : cabac=1 / ref=4 / deblock=1:-1:-1 / analyse=0x3:0x113 / me=umh / subme=9 / psy=1 / psy_rd=1.00:0.15 / mixed_ref=1 / me_range=16 / chroma_me=1 / trellis=2 / 8x8dct=1 / cqm=0 / deadzone=21,11 / fast_pskip=1 / chroma_qp_offset=-3 / threads=3 / sliced_threads=0 / nr=0 / decimate=1 / interlaced=0 / constrained_intra=0 / bframes=4 / b_pyramid=2 / b_adapt=2 / b_bias=0 / direct=3 / weightb=1 / open_gop=0 / weightp=2 / keyint=250 / keyint_min=23 / scenecut=40 / intra_refresh=0 / rc_lookahead=40 / rc=crf / mbtree=1 / crf=18.0 / qcomp=0.60 / qpmin=0 / qpmax=69 / qpstep=4 / ip_ratio=1.40 / aq=1:1.00
Audio #1
ID : 2
Format : MPEG Audio
Format version : Version 1
Format profile : Layer 3
Mode : Joint stereo
Codec ID : A_MPEG/L3
Codec ID/Hint : MP3
Duration : 1h 23mn
Bit rate mode : Constant
Bit rate : 128 Kbps
Channel(s) : 2 channels
Sampling rate : 48.0 KHz
Compression mode : Lossy
Video delay : 8ms
Stream size : 76.8 MiB (2%)
Title : Дорожка с CamRip
Language : Russian
Audio #2
ID : 3
Format : AC-3
Format/Info : Audio Coding 3
Mode extension : CM (complete main)
Codec ID : A_AC3
Duration : 1h 23mn
Bit rate mode : Constant
Bit rate : 640 Kbps
Channel(s) : 6 channels
Channel positions : Front: L C R, Side: L R, LFE
Sampling rate : 48.0 KHz
Bit depth : 16 bits
Compression mode : Lossy
Stream size : 384 MiB (10%)
Language : English
Menu
00:00:00.000 : en: 01
00:09:45.001 : en: 02
00:16:46.672 : en: 03
00:21:28.370 : en: 04
00:29:00.280 : en: 05
00:35:19.326 : en: 06
00:41:18.393 : en: 07
00:50:42.623 : en: 08
00:58:31.174 : en: 09
01:05:51.531 : en: 10
01:11:14.312 : en: 11
01:17:09.291 : en: 12
Скриншоты



Вернуться к началу
 Профиль Отправить личное сообщение  
 
   Похожие торренты   Автор   Торрент   Размер 
В этой теме нет новых непрочитанных сообщений. Джульетта / Julieta [драма, мелодрама, 2016] BDRip 720p, Dub [чистый звук]

salma3

5 | 4

4.25 ГБ

В этой теме нет новых непрочитанных сообщений. Джульетта / Julieta [драма, мелодрама, 2016] BDRip 1080p, Dub [чистый звук]

salma3

92 | 20

8.06 ГБ

В этой теме нет новых непрочитанных сообщений. Хороший динозавр / The Good Dinosaur [Мультфильм, фэнтези, комедия, приключения, семейный, 2015] BDRip 1080p, dub [чистый звук]

Dracon

321 | 12

4.5 ГБ

В этой теме нет новых непрочитанных сообщений. Хороший динозавр / The Good Dinosaur [Мультфильм, фэнтези, комедия, приключения, семейный, 2015] BDRip 1080p, dub [3D-Video | чистый звук]

Dracon

39 | 9

14.07 ГБ

В этой теме нет новых непрочитанных сообщений. Хороший динозавр / The Good Dinosaur (Питер Сон) [2015, Мультфильм, фэнтези, комедия, приключения, семейный, BDRip 1080p | Чистый звук] Dub

marya111

142 | 5

4.51 ГБ

В этой теме нет новых непрочитанных сообщений. Келли Мэдисон 6 / Kelly 6 (2017) DVDRip

salma3

0 | 0

2.34 ГБ

В этой теме нет новых непрочитанных сообщений. Человек – швейцарский нож / Swiss Army Man [фэнтези, драма, мелодрама, комедия, приключения, 2016] BDRip 1080p, Dub [чистый звук]

salma3

235 | 31

7.61 ГБ


Начать новую тему Ответить на тему  [ 1 сообщение ] 




Для Мосгорсуда, Роскомнадзора и рекламодателей:: mosgorsud-torrent[собачка]yandex.ru
cron