Торрент файл
скачать торрент магнет ссылка Добавлен: 23 май 2011, 20:43
Размер: 3.62 ГБ
Сидеров: 17
Личеров: 7
Автор

СообщениеДобавлено: 23 май 2011, 20:43 

Не в сети
Супермодератор
Аватара пользователя
Дата регистрации:
14 июн 2010, 21:00
Возраст: 30
Спасибо: 1341 / 1
Сообщения: 5611
Откуда: НиНО
Битва за планету Терра 3Д / Battle for Terra 3D Страна: США
Слоган: «It's big for a reason.»
Жанр: Приключения, фэнтези, мультфильм
Год выпуска: 2007
Продолжительность: 01:19:09
Перевод: Профессиональный (дублированный)
Русские субтитры: нет
Режиссер: Аристоменис Тсирбас / Aristomenis Tsirbas
Роли озвучивали: Чед Аллен, Розанна Аркетт, Билл Бирч, Брук Блум, Том Коннолли, Брайан Кокс, Дэвид Кросс, Беверли Д`Анджело, Джим Девоти, Крис Эванс и др.
Описание: Когда на планете Земля пересохли все реки, исчезли леса, а воздух превратился в пыль, люди исколесили Галактику, чтобы найти себе новый дом. Прекрасная планета Терра стала надеждой людей на спасение. Хитроумное устройство землян Терраформер должен превратить Терру в рай для людей и кошмар для коренных жителей. Катастрофа для террианцев неизбежна, они обречены.
Счет идет на дни и часы. И все бы шло по плану, если не одна случайность. Девочка с Терры Молу подбирает раненого пилота — землянина. Они становятся лучшими друзьями и вместе находят хитрый способ спасти Терру — последнюю живую планету Галактики. Они не подозревают, что сразу окажутся в центре бурных, опасных, веселых и удивительных событий…
бюджет $30 000 000
сборы в США $1 647 083
сборы в мире + $4 453 963 = $6 101 046
сборы в России $707 108--Качество: BDrip
Формат: mkv
Формат 3D: Half SideBySide / Горизонтальная анаморфная стереопара
Порядок ракурсов: Параллельная пара
Видео кодек: x264
Аудио кодек: AC3
Видео: MPEG4 Video (H264) 1920x1080p 23.98fps 5329 Kbps
Аудио 1: Russian: AC3 48000Hz 5.1 ch 448 kbps
Аудио 2: English: AC3 48000Hz 5.1 ch 640kbps
me
Format : Matroska
File size : 3.62 GiB
Duration : 1h 19mn
Overall bit rate : 6 548 Kbps
Encoded date : UTC 2011-03-30 00:18:51
Writing application : mkvmerge v2.9.7 ('Tenderness') built on Jul 1 2009 18:43:35
Writing library : libebml v0.7.7 + libmatroska v0.8.1
Video
ID : 1
Format : AVC
Format/Info : Advanced Video Codec
Format profile : [email protected]
Format settings, CABAC : Yes
Format settings, ReFrames : 4 frames
Muxing mode : Container [email protected]
Codec ID : V_MPEG4/ISO/AVC
Duration : 1h 19mn
Bit rate : 5 329 Kbps
Width : 1 920 pixels
Height : 1 080 pixels
Display aspect ratio : 16:9
Frame rate : 23.976 fps
Color space : YUV
Chroma subsampling : 4:2:0
Bit depth : 8 bits
Scan type : Progressive
Bits/(Pixel*Frame) : 0.107
Stream size : 2.95 GiB (81%)
Writing library : x264 core 114 r1924 08d04a4
Encoding settings : cabac=1 / ref=4 / deblock=1:-1:-1 / analyse=0x3:0x113 / me=umh / subme=9 / psy=1 / psy_rd=1.00:0.15 / mixed_ref=1 / me_range=16 / chroma_me=1 / trellis=1 / 8x8dct=1 / cqm=0 / deadzone=21,11 / fast_pskip=1 / chroma_qp_offset=-3 / threads=18 / sliced_threads=0 / nr=0 / decimate=1 / interlaced=0 / constrained_intra=0 / bframes=3 / b_pyramid=2 / b_adapt=1 / b_bias=0 / direct=3 / weightb=1 / open_gop=0 / weightp=2 / keyint=250 / keyint_min=23 / scenecut=40 / intra_refresh=0 / rc_lookahead=40 / rc=crf / mbtree=1 / crf=18.0 / qcomp=0.60 / qpmin=10 / qpmax=69 / qpstep=4 / ip_ratio=1.40 / aq=1:1.00
Language : English
Audio #1
ID : 2
Format : AC-3
Format/Info : Audio Coding 3
Mode extension : CM (complete main)
Codec ID : A_AC3
Duration : 1h 19mn
Bit rate mode : Constant
Bit rate : 448 Kbps
Channel(s) : 6 channels
Channel positions : Front: L C R, Side: L R, LFE
Sampling rate : 48.0 KHz
Bit depth : 16 bits
Stream size : 254 MiB (7%)
Language : Russian
Audio #2
ID : 3
Format : AC-3
Format/Info : Audio Coding 3
Mode extension : CM (complete main)
Codec ID : A_AC3
Duration : 1h 19mn
Bit rate mode : Constant
Bit rate : 640 Kbps
Channel(s) : 6 channels
Channel positions : Front: L C R, Side: L R, LFE
Sampling rate : 48.0 KHz
Bit depth : 16 bits
Stream size : 362 MiB (10%)
Language : English
Скриншоты



Вернуться к началу
 Профиль Отправить личное сообщение  
 
   Похожие торренты   Автор   Торрент   Размер 
В этой теме нет новых непрочитанных сообщений. Битва в Сиэтле / Battle in Seattle [драма, 2007] BDRip-AVC, Avo

salma3

0 | 0

1.99 ГБ

В этой теме нет новых непрочитанных сообщений. Битва в Сиэтле / Battle in Seattle [Боевик, драма, 2007] BDRip 720р, Avo+Dvo+Sub

salma3

93 | 24

5.06 ГБ

В этой теме нет новых непрочитанных сообщений. Воины Терра / Warriors of Terra [ужасы, фантастика, 2006] DVDRip,Dvo

salma3

77 | 3

1.33 ГБ

В этой теме нет новых непрочитанных сообщений. Инопланетное вторжение: Битва за Лос-Анджелес / Battle: Los Angeles [Фантастика, боевик, 2011] BDRip-AVC, Dub

salma3

21 | 10

3.27 ГБ

В этой теме нет новых непрочитанных сообщений. Битва воина / Battle Warrior / Nuk soo dane song kram [ужасы, боевик, приключения, 1996] DVDRip, Avo

salma3

56 | 7

1.46 ГБ

В этой теме нет новых непрочитанных сообщений. Битва полов / Battle of the Sexes [Драма, комедия, биография, спорт, 2017] BDRip, Mvo [Лицензия]

salma3

0 | 0

1.46 ГБ

В этой теме нет новых непрочитанных сообщений. Битва полов / Battle of the Sexes [Драма, комедия, биография, спорт, 2017] BDRip, Mvo [Лицензия]

salma3

927 | 140

1.46 ГБ


Начать новую тему Ответить на тему  [ 1 сообщение ] 




Для Мосгорсуда, Роскомнадзора и рекламодателей:: mosgorsud-torrent[собачка]yandex.ru
cron