Торрент файл
скачать торрент магнет ссылка Добавлен: 23 май 2011, 20:43
Размер: 2.97 ГБ
Сидеров: 5
Личеров: 6
Автор

СообщениеДобавлено: 23 май 2011, 20:43 

Не в сети
Супермодератор
Аватара пользователя
Дата регистрации:
14 июн 2010, 21:00
Возраст: 29
Спасибо: 1341 / 1
Сообщения: 5611
Откуда: НиНО
Легенды ночных стражей 3D / Legend of the Guardians: The Owls of Ga’Hoole 3D
Год выпуска: 2010
Страна: США, Австралия
Студия: Animal Logic, Village Roadshow Pictures, Warner Br
Жанр: Мультфильм, Фэнтези, Приключения
Продолжительность: 01:36:44
Перевод: Профессиональный (дублированный)
Русские субтитры: нет
Режиссер на русском: Зак Снайдер
Режиссер на английском: Zack Snyder
Роли озвучивали: Джим Стерджесс, Джоэл Эдгертон, Хьюго Уивинг, Эдриэнн ДеФариа, Ричард Роксбург, Дэвид Уэнэм, Хелен Миррен, Мириам Марголис, Сэм Нил, Джеффри Раш.
Описание: Миром, в котором уже не осталось людей, правят совы… добрые… злые… как и всегда! В волшебном лесу - королевстве сов Тито - на Великом Дереве Га`Хуул, где разумные совы живут в гармонии, наступают мрачные времена. Королевство подвергается страшной опасности со стороны соседних жестоких правителей, и эта опасность грозит уничтожить привычное мироздание.

http://www.kinopoisk.ru/level/1/film/409776/
Скачать Сэмпл
FAQ по просмотру 3D фильмов
Качество: HDrip 720p исходник BDRip-AVC
Контейнер: MKV
Формат 3D: Half SideBySide / Горизонтальная анаморфная стереопара
Порядок ракурсов: левый ракурс первый
Видео кодек: x264
Аудио кодек: AC3
Видео: MPEG4 Video (H264), 1280x720, 23.976 fps, ~3 918 Kbps
Аудио: Русский (полное дублирование), AC3, 6 ch, 48 kHz, 384 kbps, Отдельно Русский (любительский одноголосый) закадровый (Zamez)
Субтитры: отсутствуют
MediaInfo
General
Complete name : D:\Converting\Legend of the Guardians 3D (2010) HDRip.mkv
Format : Matroska
File size : 2.97 GiB
Duration : 1h 36mn
Overall bit rate : 4 390 Kbps
Encoded date : UTC 2011-02-02 22:01:09
Writing application : mkvmerge v4.5.0 ('Speed of Light') сборка от Feb 1 2011 02:10:32
Writing library : libebml v1.2.0 + libmatroska v1.1.0
Video
ID : 1
Format : AVC
Format/Info : Advanced Video Codec
Format profile : [email protected]
Format settings, CABAC : No
Format settings, ReFrames : 1 frame
Muxing mode : Container [email protected]
Codec ID : V_MPEG4/ISO/AVC
Duration : 1h 36mn
Bit rate : 3 918 Kbps
Width : 1 280 pixels
Height : 720 pixels
Display aspect ratio : 16:9
Frame rate : 23.976 fps
Color space : YUV
Chroma subsampling : 4:2:0
Bit depth : 8 bits
Scan type : Progressive
Bits/(Pixel*Frame) : 0.177
Stream size : 2.65 GiB (89%)
Audio
ID : 2
Format : AC-3
Format/Info : Audio Coding 3
Mode extension : CM (complete main)
Codec ID : A_AC3
Duration : 1h 36mn
Bit rate mode : Constant
Bit rate : 384 Kbps
Channel(s) : 6 channels
Channel positions : Front: L C R, Side: L R, LFE
Sampling rate : 48.0 KHz
Bit depth : 16 bits
Stream size : 266 MiB (9%)
Title : Дублированное
Language : Russian
Скриншоты
Не забывайте говорить "Спасибо"!
Или оставьте свой комментарий!



Вернуться к началу
 Профиль Отправить личное сообщение  
 
   Похожие торренты   Автор   Торрент   Размер 
В этой теме нет новых непрочитанных сообщений. Мой маленький пони: Девочки из Эквестрии - Легенды вечнозеленого леса / My Little Pony: Equestria Girls - Legend of Everfree [приключения, семейный, фэнтези, 2016] WEB-DLRip 1080p, Dub [Карусель]

salma3

411 | 40

2.95 ГБ

В этой теме нет новых непрочитанных сообщений. Царь обезьян: Начало легенды / Король обезьян 2 / Xi you ji zhi: Sun Wukong san da Baigu Jing [Фэнтези, боевик, приключения, 2016] HDRip, Dvo

salma3

481 | 31

1.46 ГБ

В этой теме нет новых непрочитанных сообщений. 7 хранителей гробницы / 7 Guardians of the Tomb [боевик, приключения, ужасы, 2018] HDRip, Mvo [GreenРай Studio]

salma3

383 | 133

1.36 ГБ

В этой теме нет новых непрочитанных сообщений. Стражи Галактики. Часть 2 / Guardians of the Galaxy Vol. 2 [фантастика, боевик, приключения, 2017] HDRip-AVC, Dub [iTunes]

salma3

812 | 226

2.19 ГБ

В этой теме нет новых непрочитанных сообщений. Стражи Галактики. Часть 2 / Guardians of the Galaxy Vol. 2 [фантастика, боевик, приключения, 2017] HDRip-AVC, Dub [Лицензия]

salma3

359 | 56

2.59 ГБ

В этой теме нет новых непрочитанных сообщений. 7 хранителей гробницы / 7 Guardians of the Tomb [боевик, приключения, ужасы, 2018] HDRip 720p, Mvo [GreenРай Studio]

salma3

106 | 27

1.45 ГБ

В этой теме нет новых непрочитанных сообщений. 7 хранителей гробницы / 7 Guardians of the Tomb [боевик, приключения, ужасы, 2018] HDRip 1080p, Mvo [GreenРай Studio]

salma3

147 | 63

5.21 ГБ


Начать новую тему Ответить на тему  [ 1 сообщение ] 




Для Мосгорсуда, Роскомнадзора и рекламодателей:: mosgorsud-torrent[собачка]yandex.ru
cron