Торрент файл
скачать торрент магнет ссылка Добавлен: 23 май 2011, 20:43
Размер: 4.74 ГБ
Сидеров: 10
Личеров: 7
Автор

СообщениеДобавлено: 23 май 2011, 20:43 

Не в сети
Супермодератор
Аватара пользователя
Дата регистрации:
14 июн 2010, 21:00
Возраст: 29
Спасибо: 1341 / 1
Сообщения: 5611
Откуда: НиНО
Балбесы 3Д / Olsen Banden på de bonede gulve / Olsen Gang Gets Polished 3DСтрана: Дания
Жанр: мультфильм, комедия
Продолжительность: 01:18:13
Год выпуска: 2010
Перевод: Профессиональный (дублированный) лицензия
Русские субтитры: нет
Режиссёр: Юрген Лердам
В ролях: Мартин Бух, Николай Кристенсен, Аннетт Хеик, Альберт С. Ланд, Йонас Шмидт
Роли дублировали: Инна Королёва, Иван Жарков, Пётр Иващенко
Описание: Эгон Ольсен — криминальный гений и закоренелый преступник. Его постоянные подельники — Бенни и Кельд, парочка глупых и абсолютно безвредных воришек, никогда не прибегающих к насилию. К сожалению, филигранно продуманные операции Ольсена терпят фиаско с завидной регулярностью, но всякий раз, отмотав срок, компания неунывающих неудачников объединяется, чтобы реализовывать очередной «гениальный» план обогащения. На сей раз банда Ольсена решает похитить мемориальное перо, которым были написаны лучшие произведения легендарного сказочника Ганса Христиана Андерсена. Но хитроумная операция опять пошла не тем путем! В дело оказались впутаны китайский магнат, датская королева и продажный премьер-министр. Удастся ли Эгону избежать ареста? Или вместо увильнувшей от полиции «крупной рыбы» ему опять придется выступить «козлом отпущения»?-
-
Качество: BDrip
Формат: MKV
Формат 3D: Half SideBySide / Горизонтальная анаморфная стереопара
Порядок ракурсов: Параллельная пара
Видео кодек: x264
Аудио кодек: DTS, AC3
Видео: MPEG4 Video (H264) 1920x1080 23.98fp 6609 Kbps
Аудио 1: Russian AC3 48000Hz 5.1ch 384 kbps
Аудио 2: Danish DTS 48000Hz 5.1ch 1510 kbps
me
Format : Matroska
File size : 4.74 GiB
Duration : 1h 18mn
Overall bit rate : 8 675 Kbps
Encoded date : UTC 2011-04-28 05:23:17
Writing application : mkvmerge v2.9.7 ('Tenderness') built on Jul 1 2009 18:43:35
Writing library : libebml v0.7.7 + libmatroska v0.8.1
Video
ID : 1
Format : AVC
Format/Info : Advanced Video Codec
Format profile : [email protected]
Format settings, CABAC : Yes
Format settings, ReFrames : 4 frames
Muxing mode : Container [email protected]
Codec ID : V_MPEG4/ISO/AVC
Duration : 1h 18mn
Bit rate : 6 609 Kbps
Width : 1 920 pixels
Height : 1 080 pixels
Display aspect ratio : 16:9
Frame rate : 23.976 fps
Color space : YUV
Chroma subsampling : 4:2:0
Bit depth : 8 bits
Scan type : Progressive
Bits/(Pixel*Frame) : 0.133
Stream size : 3.61 GiB (76%)
Writing library : x264 core 115 r1947 b5a8ad7
Encoding settings : cabac=1 / ref=4 / deblock=1:-1:-1 / analyse=0x3:0x113 / me=umh / subme=9 / psy=1 / psy_rd=1.00:0.15 / mixed_ref=1 / me_range=16 / chroma_me=1 / trellis=1 / 8x8dct=1 / cqm=0 / deadzone=21,11 / fast_pskip=1 / chroma_qp_offset=-3 / threads=18 / sliced_threads=0 / nr=0 / decimate=1 / interlaced=0 / bluray_compat=0 / constrained_intra=0 / bframes=3 / b_pyramid=2 / b_adapt=1 / b_bias=0 / direct=3 / weightb=1 / open_gop=0 / weightp=2 / keyint=250 / keyint_min=23 / scenecut=40 / intra_refresh=0 / rc_lookahead=40 / rc=crf / mbtree=1 / crf=18.0 / qcomp=0.60 / qpmin=10 / qpmax=69 / qpstep=4 / ip_ratio=1.40 / aq=1:1.00
Language : English
Audio #1
ID : 2
Format : AC-3
Format/Info : Audio Coding 3
Mode extension : CM (complete main)
Codec ID : A_AC3
Duration : 1h 18mn
Bit rate mode : Constant
Bit rate : 384 Kbps
Channel(s) : 6 channels
Channel positions : Front: L C R, Side: L R, LFE
Sampling rate : 48.0 KHz
Bit depth : 16 bits
Stream size : 215 MiB (4%)
Language : Russian
Audio #2
ID : 3
Format : DTS
Format/Info : Digital Theater Systems
Codec ID : A_DTS
Duration : 1h 18mn
Bit rate mode : Constant
Bit rate : 1 510 Kbps
Channel(s) : 6 channels
Channel positions : Front: L C R, Side: L R, LFE
Sampling rate : 48.0 KHz
Bit depth : 24 bits
Stream size : 845 MiB (17%)
Language : Danish
Скриншоты



Вернуться к началу
 Профиль Отправить личное сообщение  
 
   Похожие торренты   Автор   Торрент   Размер 
В этой теме нет новых непрочитанных сообщений. [JulesJordan.com] Anya Olsen (Anya Olsen Worships Mandingo's Giant Big Black Cock / 06.09.17) [2017 г., All Sex, 360p]

salma3

13 | 4

277.4 МБ

В этой теме нет новых непрочитанных сообщений. [JulesJordan.com] Anya Olsen (Anya Olsen Has An Assgasm With Manuel Ferrara / 26.07.17.) [2017 г., Gonzo, Anal, 360p]

salma3

38 | 13

350.41 МБ

В этой теме нет новых непрочитанных сообщений. Anya Olsen - My Play Toy (2017) SiteRip

salma3

0 | 0

345.12 МБ

В этой теме нет новых непрочитанных сообщений. [Holed.com] Anya Olsen (Glass For Her Ass / 08.08.17.) [Gonzo, Anal, 480p]

salma3

38 | 13

333.86 МБ

В этой теме нет новых непрочитанных сообщений. Anya Olsen / Paying Rent With a Creampie (2015) HD 720p

Dile-1

33 | 136

764.81 МБ

В этой теме нет новых непрочитанных сообщений. Jillian Janson, Anya Olsen - Hot Vacation With My Best Friend (2016) SiteRip

salma3

18 | 11

614.61 МБ

В этой теме нет новых непрочитанных сообщений. [SpyFam.com] Anya Olsen - Fucking Stepmom and Stepsis In Same Week (02.10.2017) [All sex]

salma3

32 | 10

347.93 МБ


Начать новую тему Ответить на тему  [ 1 сообщение ] 




Для Мосгорсуда, Роскомнадзора и рекламодателей:: mosgorsud-torrent[собачка]yandex.ru
cron