Торрент файл
скачать торрент магнет ссылка Добавлен: 23 май 2011, 20:43
Размер: 5.6 ГБ
Сидеров: 2
Личеров: 4
Автор

СообщениеДобавлено: 23 май 2011, 20:43 

Не в сети
Супермодератор
Аватара пользователя
Дата регистрации:
14 июн 2010, 21:00
Возраст: 29
Спасибо: 1341 / 1
Сообщения: 5611
Откуда: НиНО
Битва за планету Терра 3Д / Battle for Terra 3D Страна: США
Слоган: «It's big for a reason.»
Жанр: Приключения, фэнтези, мультфильм
Год выпуска: 2007
Продолжительность: 01:15:46
Перевод: Профессиональный (дублированный)
Русские субтитры: нет
Режиссер: Аристоменис Тсирбас / Aristomenis Tsirbas
Роли озвучивали: Чед Аллен, Розанна Аркетт, Билл Бирч, Брук Блум, Том Коннолли, Брайан Кокс, Дэвид Кросс, Беверли Д`Анджело, Джим Девоти, Крис Эванс и др.
Описание: Когда на планете Земля пересохли все реки, исчезли леса, а воздух превратился в пыль, люди исколесили Галактику, чтобы найти себе новый дом. Прекрасная планета Терра стала надеждой людей на спасение. Хитроумное устройство землян Терраформер должен превратить Терру в рай для людей и кошмар для коренных жителей. Катастрофа для террианцев неизбежна, они обречены.
Счет идет на дни и часы. И все бы шло по плану, если не одна случайность. Девочка с Терры Молу подбирает раненого пилота — землянина. Они становятся лучшими друзьями и вместе находят хитрый способ спасти Терру — последнюю живую планету Галактики. Они не подозревают, что сразу окажутся в центре бурных, опасных, веселых и удивительных событий…
бюджет $30 000 000
сборы в США $1 647 083
сборы в мире + $4 453 963 = $6 101 046
сборы в России $707 108--Качество: HDTV
Формат: TS
Формат 3D: Half SideBySide / Горизонтальная анаморфная стереопара
Порядок ракурсов: Параллельная пара
Видео кодек: h.264
Аудио кодек: AC3
Видео: MPEG4 Video (H264) 1920x1080i 25.000 fps 9224 Kbps
Аудио 1: Russian: AC3 48000Hz 5.1 ch 448 kbps
Аудио 2: English: AC3 48000Hz 2 ch 384 kbps
me
Format : MPEG-TS
File size : 5.60 GiB
Duration : 1h 15mn
Overall bit rate : 10.6 Mbps
Maximum Overall bit rate : 35.5 Mbps
Video
ID : 4113 (0x1011)
Menu ID : 1 (0x1)
Format : AVC
Format/Info : Advanced Video Codec
Format profile : [email protected]
Format settings, CABAC : Yes
Format settings, ReFrames : 4 frames
Codec ID : 27
Duration : 1h 15mn
Bit rate mode : Variable
Bit rate : 9 224 Kbps
Maximum bit rate : 40.0 Mbps
Width : 1 920 pixels
Height : 1 080 pixels
Display aspect ratio : 16:9
Frame rate : 25.000 fps
Color space : YUV
Chroma subsampling : 4:2:0
Bit depth : 8 bits
Scan type : Interlaced
Scan order : Top Field First
Bits/(Pixel*Frame) : 0.178
Stream size : 4.88 GiB (87%)
Color primaries : BT.709-5, BT.1361, IEC 61966-2-4, SMPTE RP177
Transfer characteristics : BT.709-5, BT.1361
Matrix coefficients : BT.709-5, BT.1361, IEC 61966-2-4 709, SMPTE RP177
Audio #1
ID : 4352 (0x1100)
Menu ID : 1 (0x1)
Format : AC-3
Format/Info : Audio Coding 3
Mode extension : CM (complete main)
Codec ID : 129
Duration : 1h 15mn
Bit rate mode : Constant
Bit rate : 448 Kbps
Channel(s) : 6 channels
Channel positions : Front: L C R, Side: L R, LFE
Sampling rate : 48.0 KHz
Bit depth : 16 bits
Video delay : 5ms
Stream size : 243 MiB (4%)
Language : Russian
Audio #2
ID : 4353 (0x1101)
Menu ID : 1 (0x1)
Format : AC-3
Format/Info : Audio Coding 3
Mode extension : CM (complete main)
Codec ID : 129
Duration : 1h 15mn
Bit rate mode : Constant
Bit rate : 384 Kbps
Channel(s) : 2 channels
Channel positions : Front: L R
Sampling rate : 48.0 KHz
Bit depth : 16 bits
Video delay : -90ms
Stream size : 208 MiB (4%)
Language : English
Скриншоты



Вернуться к началу
 Профиль Отправить личное сообщение  
 
   Похожие торренты   Автор   Торрент   Размер 
В этой теме нет новых непрочитанных сообщений. Воины Терра / Warriors of Terra [ужасы, фантастика, 2006] DVDRip,Dvo

salma3

77 | 3

1.33 ГБ

В этой теме нет новых непрочитанных сообщений. Nat Geo Wild: Битва за прайд / Battle For The Pride (2016) HDTV 1080i | P1

salma3

0 | 0

2.2 ГБ

В этой теме нет новых непрочитанных сообщений. Битва в Сиэтле / Battle in Seattle [драма, 2007] BDRip-AVC, Avo

salma3

0 | 0

1.99 ГБ

В этой теме нет новых непрочитанных сообщений. Битва в Сиэтле / Battle in Seattle [Боевик, драма, 2007] BDRip 720р, Avo+Dvo+Sub

salma3

93 | 24

5.06 ГБ

В этой теме нет новых непрочитанных сообщений. Битва воина / Battle Warrior / Nuk soo dane song kram [ужасы, боевик, приключения, 1996] DVDRip, Avo

salma3

56 | 7

1.46 ГБ

В этой теме нет новых непрочитанных сообщений. Битва задниц 7 / Battle Of The Asses 7 (2018) WEBRip

salma3

71 | 12

1.26 ГБ

В этой теме нет новых непрочитанных сообщений. Nat Geo Wild: Битва за прайд / Battle For The Pride (2016) HDTVRip-AVC | P1

salma3

0 | 0

844.41 МБ


Начать новую тему Ответить на тему  [ 1 сообщение ] 




Для Мосгорсуда, Роскомнадзора и рекламодателей:: mosgorsud-torrent[собачка]yandex.ru
cron