Торрент файл
скачать торрент магнет ссылка Добавлен: 23 май 2011, 20:43
Размер: 5.34 ГБ
Сидеров: 1
Личеров: 4
Автор

СообщениеДобавлено: 23 май 2011, 20:43 

Не в сети
Супермодератор
Аватара пользователя
Дата регистрации:
14 июн 2010, 21:00
Возраст: 29
Спасибо: 1341 / 1
Сообщения: 5611
Откуда: НиНО
Альфа и Омега: Клыкастая братва / Alpha and Omega
Год выпуска: 2010
Страна: США / Индия
Студия: Lions Gate Family Entertainment / Crest Animation-Жанр: мультфильм, комедия, приключения, семейный
Продолжительность: 01:27:55
Перевод: Профессиональный (дублированный)
Русские субтитры: нет-Режиссер: Энтони Белл / Anthony Bell, Бен Глюк / Ben Gluck
В ролях: Джастин Лонг (Humphrey, озвучка), Хайден Панеттьери (Kate, озвучка), Деннис Хоппер (Tony, озвучка), Дэнни Гловер (Winston, озвучка), Ларри Миллер (Marcel, озвучка), Эрик Прайс (Paddy / Mooch, озвучка), Викки Льюис (Eve, озвучка), Крис Кармак (Garth, озвучка), Кевин Суссман (Shakey, озвучка), Брайан Донован (Salty, озвучка), Кристина Риччи (Lilly, озвучка), Битси Таллоч (Sweets, озвучка)
Дублёры: Сергей Лазарев (Humphrey), Валерия Кудрявцева (Kate), Игорь Старосельцев (Tony), Василий Бочкарев (Winston), Александр Клюквин (Marcel), Никита Прозоровский (Paddy / Mooch), Елена Соловьева (Eve), Александр Гаврилин (Garth), Диомид Виноградов (Shakey), Иван Жарков (Salty), Лина Иванова (Lilly)-Описание: Омега - волк, далёкий от высших кругов. Он мечтает познакомиться с самой популярной волчицей в стае - Альфой. И вот судьба подбрасывает ему неплохой шанс - работники заповедника отправляют их в Айдахо. Волку и волчице придётся сплотиться, для того, чтобы вернуться на свою родину.- | -Релиз группы:

P.S.: Это наш первый релиз, сильно не пинать Видеоряд от z-man.-Качество: BDRip
Контейнер: MKV
Формат 3D: Half SideBySide / Горизонтальная анаморфная стереопара
Порядок ракурсов: левый ракурс первый
Видео: AVC, 1920x1080, 23,976 кадр/сек, 6545 Кбит/с
Аудио №1: Русский: AC3, 448 kb/s (6 ch)
Аудио №2: Английский: DTS, 1509 kb/s (6 ch)
Субтитры: Отсутствуют
MediaInfo
General
Complete name : E:\Alpha.And.Omega.3D.HSBS.BDRip.1080.2010.mkv
Format : Matroska
File size : 5.34 GiB
Duration : 1h 28mn
Overall bit rate : 8 676 Kbps
Encoded date : UTC 2011-03-15 12:33:42
Writing application : mkvmerge v4.6.0 ('Still Crazy After All These Years') сборка от Mar 10 2011 02:50:32
Writing library : libebml v1.2.0 + libmatroska v1.1.0
Video
ID : 1
Format : AVC
Format/Info : Advanced Video Codec
Format profile : [email protected]
Format settings, CABAC : Yes
Format settings, ReFrames : 4 frames
Muxing mode : Container [email protected]
Codec ID : V_MPEG4/ISO/AVC
Duration : 1h 28mn
Bit rate : 6 545 Kbps
Width : 1 920 pixels
Height : 1 080 pixels
Display aspect ratio : 16:9
Frame rate : 23.976 fps
Color space : YUV
Chroma subsampling : 4:2:0
Bit depth : 8 bits
Scan type : Progressive
Bits/(Pixel*Frame) : 0.132
Stream size : 4.03 GiB (75%)
Title : SBS made by z-man
Writing library : x264 core 114 r1900 60ef1f8
Encoding settings : cabac=1 / ref=4 / deblock=1:-1:-1 / analyse=0x3:0x113 / me=umh / subme=9 / psy=1 / psy_rd=1.00:0.15 / mixed_ref=1 / me_range=16 / chroma_me=1 / trellis=1 / 8x8dct=1 / cqm=0 / deadzone=21,11 / fast_pskip=1 / chroma_qp_offset=-3 / threads=18 / sliced_threads=0 / nr=0 / decimate=1 / interlaced=0 / constrained_intra=0 / bframes=3 / b_pyramid=2 / b_adapt=1 / b_bias=0 / direct=3 / weightb=1 / open_gop=0 / weightp=2 / keyint=250 / keyint_min=23 / scenecut=40 / intra_refresh=0 / rc_lookahead=40 / rc=crf / mbtree=1 / crf=18.0 / qcomp=0.60 / qpmin=10 / qpmax=69 / qpstep=4 / ip_ratio=1.40 / aq=1:1.00
Audio #1
ID : 2
Format : AC-3
Format/Info : Audio Coding 3
Mode extension : CM (complete main)
Codec ID : A_AC3
Duration : 1h 28mn
Bit rate mode : Constant
Bit rate : 448 Kbps
Channel(s) : 6 channels
Channel positions : Front: L C R, Side: L R, LFE
Sampling rate : 48.0 KHz
Bit depth : 16 bits
Video delay : 13s 330ms
Stream size : 283 MiB (5%)
Language : Russian
Audio #2
ID : 3
Format : DTS
Format/Info : Digital Theater Systems
Muxing mode : Header stripping
Codec ID : A_DTS
Duration : 1h 28mn
Bit rate mode : Constant
Bit rate : 1 510 Kbps
Channel(s) : 6 channels
Channel positions : Front: L C R, Side: L R, LFE
Sampling rate : 48.0 KHz
Bit depth : 24 bits
Stream size : 952 MiB (17%)
Language : English
Скриншоты




Вернуться к началу
 Профиль Отправить личное сообщение  
 
   Похожие торренты   Автор   Торрент   Размер 
В этой теме нет новых непрочитанных сообщений. Альфа и Омега 6: Пещеры динозавров / Alpha and Omega: Dino Digs [мультфильм, фэнтези, комедия, приключения, семейный, 2016] WEB-DL 720р, Dub

salma3

348 | 55

1.57 ГБ

В этой теме нет новых непрочитанных сообщений. Альфа и Омега 5: Семейный отдых [Мультфильм, комедия, приключения, семейный, полнометражный, 2015] HDRip, Dub

Dracon

297 | 16

663.21 МБ

В этой теме нет новых непрочитанных сообщений. Подводная братва / Shark Tale [мультфильм, комедия, приключения, семейный, 2004] WEBRip 1080p, Dub+Mvo+Dvo+Avo+Sub

salma3

47 | 13

7.05 ГБ

В этой теме нет новых непрочитанных сообщений. Альфа-дом / Alpha House [S02] [драма, комедия, 2014] WEBRip 720p, Dvo [Hamster]

salma3

16 | 10

6.55 ГБ

В этой теме нет новых непрочитанных сообщений. Код «Омега» / The Omega Code [фантастика, фэнтези, боевик, 1999] DVDRip, Mvo

salma3

118 | 39

1.46 ГБ

В этой теме нет новых непрочитанных сообщений. Альфа Дог / Alpha Dog [драма, криминал, биография, 2006] HDRip-AVC, Dub

salma3

25 | 4

746.6 МБ

В этой теме нет новых непрочитанных сообщений. Медведь Йоги / Yogi Bear [Мультфильм, комедия, приключения, семейный, 2010] BDRip 720р, Dub

salma3

0 | 0

4.1 ГБ


Начать новую тему Ответить на тему  [ 1 сообщение ] 




Для Мосгорсуда, Роскомнадзора и рекламодателей:: mosgorsud-torrent[собачка]yandex.ru
cron