Торрент файл
скачать торрент магнет ссылка Добавлен: 23 май 2011, 20:35
Размер: 7.58 ГБ
Сидеров: 1
Личеров: 4
Автор

СообщениеДобавлено: 23 май 2011, 20:35 

Не в сети
Супермодератор
Аватара пользователя
Дата регистрации:
14 июн 2010, 21:00
Возраст: 30
Спасибо: 1341 / 1
Сообщения: 5611
Откуда: НиНО
Шевели ластами! 3D / Sammy's avonturen: De geheime doorgang 3D
Год выпуска: 2010
Страна: США
Студия: Illuminata Pictures
Жанр: Приключения, мультфильм
Продолжительность: 01:10:49
Перевод: полное дублирование
Русские субтитры: нет
Режиссер на русском: Бен Стассен / Ben St
Описание: Для маленькой черепашки подводный мир — самое безопасное место. Здесь акулы, пираньи, змеи, а на берегу поджидают люди. И наш маленький Сэмми хочет узнать весь мир, от полярных льдов до субтропиков. Путешествие продлится ровно полвека, начиная с 1959 года, за это время даже климат успеет измениться.
Сэмпл: http://multi-up.com/402110
Качество: BDrip, рип: Dag13
Контейнер: MKV
Формат 3D: OverUnder / Вертикальная стереопара
Порядок ракурсов: левый ракурс первый
Видео кодек: x264
Аудио кодек: ac3
Видео: MPEG-4 AVC, 14 Mбит/с, 1920x2160, 25.000 fps
Аудио: Русский (АС3, 6 ch, 448 Кбит/с, 48.0 KHz)
Субтитры: нет
MediaInfo
General
Complete name : D:\Seveli.Lastami.3D.2010.x264.BDRip.1080p.mkv
Format : Matroska
File size : 7.58 GiB
Duration : 1h 10mn
Overall bit rate : 15.3 Mbps
Encoded date : UTC 2010-12-23 08:13:35
Writing application : mkvmerge v3.4.0 ('Rapunzel') сборка от May 15 2010 09:38:20
Writing library : libebml v0.8.0 + libmatroska v0.9.0
Video
ID : 1
Format : AVC
Format/Info : Advanced Video Codec
Format profile : [email protected]
Format settings, CABAC : Yes
Format settings, ReFrames : 4 frames
Muxing mode : Container [email protected]
Codec ID : V_MPEG4/ISO/AVC
Duration : 1h 10mn
Bit rate : 14.6 Mbps
Width : 1 920 pixels
Height : 2 160 pixels
Display aspect ratio : 0.889
Frame rate : 25.000 fps
Original frame rate : 23.976 fps
Resolution : 8 bits
Colorimetry : 4:2:0
Scan type : Progressive
Bits/(Pixel*Frame) : 0.141
Stream size : 7.21 GiB (95%)
Writing library : x264 core 108 r1788 c764e29
Encoding settings : cabac=1 / ref=4 / deblock=1:-2:-2 / analyse=0x3:0x113 / me=umh / subme=7 / psy=1 / psy_rd=1.00:0.00 / mixed_ref=1 / me_range=16 / chroma_me=1 / trellis=2 / 8x8dct=1 / cqm=0 / deadzone=21,11 / fast_pskip=1 / chroma_qp_offset=-3 / threads=6 / sliced_threads=0 / nr=0 / decimate=1 / interlaced=0 / constrained_intra=0 / bframes=6 / b_pyramid=0 / b_adapt=2 / b_bias=0 / direct=3 / weightb=1 / open_gop=0 / weightp=2 / keyint=250 / keyint_min=23 / scenecut=40 / intra_refresh=0 / rc_lookahead=40 / rc=crf / mbtree=1 / crf=18.0 / qcomp=0.60 / qpmin=10 / qpmax=51 / qpstep=4 / ip_ratio=1.40 / aq=1:1.00
Audio
ID : 2
Format : AC-3
Format/Info : Audio Coding 3
Codec ID : A_AC3
Duration : 1h 10mn
Bit rate mode : Constant
Bit rate : 448 Kbps
Channel(s) : 6 channels
Channel positions : Front: L C R, Surround: L R, LFE
Sampling rate : 48.0 KHz
Stream size : 227 MiB (3%)
Language : Russian
Скриншоты



Вернуться к началу
 Профиль Отправить личное сообщение  
 
   Похожие торренты   Автор   Торрент   Размер 
В этой теме нет новых непрочитанных сообщений. Сезон охоты 3 / Open Season 3 [мультфильм, комедия, приключения, 2010] BDRip 1080p, Dub

salma3

16 | 14

4.37 ГБ

В этой теме нет новых непрочитанных сообщений. Приключения олененка Рудольфа / Rudolph, the Red-Nosed Reindeer [мультфильм, мюзикл, фэнтези, приключения, семейный, 1964] BDRip 1080p, Mvo

salma3

7 | 4

3.62 ГБ

В этой теме нет новых непрочитанных сообщений. Супергерои / Bling [мультфильм, приключения, 2016] BDRip 1080p, Dub [iTunes]

salma3

701 | 166

5.27 ГБ

В этой теме нет новых непрочитанных сообщений. Кот в сапогах / Puss in Boots [мультфильм, комедия, приключения, 2011] BDRip 1080p, Dub

salma3

18 | 1

4.37 ГБ

В этой теме нет новых непрочитанных сообщений. Тачки 3 / Cars 3 [Мультфильм, комедия, приключения, 2017] BDRip 1080p, Dub+Sub [Лицензия]

salma3

0 | 0

8.78 ГБ

В этой теме нет новых непрочитанных сообщений. Сезон охоты / Open Season [мультфильм, комедия, приключения, 2006] BDRip 1080p, Dub

salma3

26 | 17

4.37 ГБ

В этой теме нет новых непрочитанных сообщений. Сезон охоты 2 / Open Season 2 [мультфильм, комедия, приключения, 2008] BDRip 1080p, Dub

salma3

18 | 14

4.37 ГБ


Начать новую тему Ответить на тему  [ 1 сообщение ] 




Для Мосгорсуда, Роскомнадзора и рекламодателей:: mosgorsud-torrent[собачка]yandex.ru
cron