Торрент файл
скачать торрент магнет ссылка Добавлен: 19 янв 2015, 11:33
Размер: 7.76 ГБ
Сидеров: 154
Личеров: 45
Автор

СообщениеДобавлено: 19 янв 2015, 11:33 

Не в сети
Зам. Админа
Аватара пользователя
Дата регистрации:
02 дек 2010, 12:39
Спасибо: 12656 / 214
Сообщения: 28010



Книга жизни
The Book of Life




Год выпуска: 2014
Страна: США (20th Century Fox, Reel FX Animation Studios)
Жанр: Мультфильм, Фэнтези, Мелодрама, Комедия, Приключения, Семейный
Продолжительность: 1:35:25

Перевод: Профессиональный многоголосый закадровый - Студия Пиратского Дубляжа

Режиссёр: Хорхе Р. Гутьеррес / Jorge R. Gutierrez
Продюсер: Гильермо дель Торо / Guillermo del Toro



озвучивали:



Manolo - Диего Луна
Maria - Зои Салдана
Joaquin - Ченнинг Татум
Xibalba - Рон Перлман
Mary Beth - Кристина Эпплгейт
Candle Maker - Айс Кьюб
La Muerte - Кейт дель Кастильо
Carlos Sanchez - Гектор Элизондо
Skeleton Luis - Дэнни Трехо
General Posada / Dali / Chuy - Карлос Аласраки
Skeleton Carmen - Ана де ла Регера
Skeleton Jorge - Пласидо Доминго
Land of the Remembered Captain - Мигель Сандовал
Pancho Rodriguez - Чич Марин
Land of the Remembered Captain's Wife - Гильермо дель Торо



Описание: В мультфильме описывается романтическая история любви на фоне празднования Дня мертвых в Мексике.



Доп. инфо: Золотой глобус-2015 - номинация в категории "Лучший анимационный фильм".





Качество: BDRip (by Ash61)
Контейнер: MKV
Формат 3D: Half OverUnder / Вертикальная анаморфная стереопара
Порядок ракурсов: левый ракурс первый
Видео кодек: x264
Аудио кодек: AC3



Видео: AVC / 23,976 fps / 1920х1080p / 10.4 Mbps

Аудио:
#1 - Русский / AC3 / 48 KHz / 5.1 ch / 384 Kbps (MVO - Студия Пиратского Дубляжа)
#2 - Английский / AC3 / 48 KHz / 5.1 ch / 640 Kbps (Original - BD 3D)

Субтитры: Внешние (SRT UTF-8) English SDH (BD 3D)

General
Unique ID : 186834045457964500721420374328258725578 (0x8C8EEDA39DFF4B31B8FA049859B206CA)
Complete name : E:TheBookOfLife(2014)3D-halfOU(Ash61)MVOTheBookOfLife(2014)3D-halfOU(Ash61)MVO.mkv
Format : Matroska
Format version : Version 2
File size : 7.76 GiB
Duration : 1h 35mn
Overall bit rate : 11.6 Mbps
Movie name : Книга жизни / The Book of Life (2014) 3D
Encoded date : UTC 2015-01-18 18:42:02
Writing application : mkvmerge v5.8.0 ('No Sleep / Pillow') built on Sep 2 2012 15:37:04
Writing library : libebml v1.2.3 + libmatroska v1.3.0

Video
ID : 1
Format : AVC
Format/Info : Advanced Video Codec
Format profile : [email protected]
Format settings, CABAC : Yes
Format settings, ReFrames : 4 frames
Codec ID : V_MPEG4/ISO/AVC
Duration : 1h 35mn
Bit rate : 10.4 Mbps
Width : 1 920 pixels
Height : 1 080 pixels
Display aspect ratio : 16:9
Frame rate mode : Constant
Frame rate : 23.976 fps
Color space : YUV
Chroma subsampling : 4:2:0
Bit depth : 8 bits
Scan type : Progressive
Bits/(Pixel*Frame) : 0.209
Stream size : 6.92 GiB (89%)
Title : BDRip by Ash61
Writing library : x264 core 138 r2358 9e941d1
Encoding settings : cabac=1 / ref=4 / deblock=1:-3:-3 / analyse=0x3:0x113 / me=umh / subme=10 / psy=1 / psy_rd=1.00:0.00 / mixed_ref=1 / me_range=32 / chroma_me=1 / trellis=2 / 8x8dct=1 / cqm=0 / deadzone=21,11 / fast_pskip=1 / chroma_qp_offset=-2 / threads=12 / lookahead_threads=2 / sliced_threads=0 / nr=0 / decimate=1 / interlaced=0 / bluray_compat=0 / constrained_intra=0 / bframes=8 / b_pyramid=2 / b_adapt=2 / b_bias=0 / direct=3 / weightb=1 / open_gop=0 / weightp=2 / keyint=250 / keyint_min=23 / scenecut=40 / intra_refresh=0 / rc_lookahead=60 / rc=crf / mbtree=1 / crf=16.0 / qcomp=0.70 / qpmin=0 / qpmax=69 / qpstep=4 / vbv_maxrate=40000 / vbv_bufsize=30000 / crf_max=0.0 / nal_hrd=none / frame-packing=4 / ip_ratio=1.40 / aq=1:0.70
Language : English
Default : Yes
Forced : No

Audio #1
ID : 2
Format : AC-3
Format/Info : Audio Coding 3
Mode extension : CM (complete main)
Format settings, Endianness : Big
Codec ID : A_AC3
Duration : 1h 35mn
Bit rate mode : Constant
Bit rate : 384 Kbps
Channel(s) : 6 channels
Channel positions : Front: L C R, Side: L R, LFE
Sampling rate : 48.0 KHz
Bit depth : 16 bits
Compression mode : Lossy
Stream size : 262 MiB (3%)
Title : Многоголосый закадровый - Студия Пиратского Дубляжа
Language : Russian
Default : Yes
Forced : No

Audio #2
ID : 3
Format : AC-3
Format/Info : Audio Coding 3
Mode extension : CM (complete main)
Format settings, Endianness : Big
Codec ID : A_AC3
Duration : 1h 35mn
Bit rate mode : Constant
Bit rate : 640 Kbps
Channel(s) : 6 channels
Channel positions : Front: L C R, Side: L R, LFE
Sampling rate : 48.0 KHz
Bit depth : 16 bits
Compression mode : Lossy
Stream size : 437 MiB (5%)
Title : Original - BD 3D
Language : English
Default : No
Forced : No

Menu
00:00:00.000 : :1
00:02:58.051 : :2
00:05:39.629 : :3
00:08:35.014 : :4
00:12:08.476 : :5
00:15:07.697 : :6
00:19:24.246 : :7
00:22:20.087 : :8
00:26:08.148 : :9
00:28:59.570 : :10
00:33:02.145 : :11
00:37:25.952 : :12
00:41:07.088 : :13
00:43:14.632 : :14
00:47:02.485 : :15
00:50:53.050 : :16
00:53:13.231 : :17
00:56:30.219 : :18
01:00:16.278 : :19
01:03:57.791 : :20
01:06:48.378 : :21
01:09:09.895 : :22
01:11:52.015 : :23
01:15:53.215 : :24
01:18:52.769 : :25
01:21:13.409 : :26
01:23:33.841 : :27
01:27:11.893 : :28














Вернуться к началу
 Профиль  
 
   Похожие торренты   Автор   Торрент   Размер 
В этой теме нет новых непрочитанных сообщений. Книга джунглей / The Jungle Book [Фэнтези, драма, приключения, семейный, 2016] BDRip 1080p, Dub [Лицензия] [3D-Video]

salma3

122 | 30

16.68 ГБ

В этой теме нет новых непрочитанных сообщений. Книга джунглей / The Jungle Book [фэнтези, драма, приключения, семейный, 2016] BDRip 1080p, Dub [чистый звук]

salma3

3342 | 87

7.14 ГБ

В этой теме нет новых непрочитанных сообщений. Книга джунглей / The Jungle Book [фэнтези, драма, приключения, семейный, 2016] BDRip 720p, Dub [Лицензия]

salma3

24 | 9

8.91 ГБ

В этой теме нет новых непрочитанных сообщений. Аисты / Storks ( Мультфильм, Фэнтези, Комедия, Приключения, Семейный, 2016) BDRip 1080p от Ash61 | 3D-Video | halfOU | iTunes

marya111

129 | 91

9.19 ГБ

В этой теме нет новых непрочитанных сообщений. Хороший динозавр / The Good Dinosaur [Мультфильм, фэнтези, комедия, приключения, семейный, 2015] BDRip 1080p, dub [3D-Video | чистый звук]

Dracon

39 | 9

14.07 ГБ

В этой теме нет новых непрочитанных сообщений. Книга джунглей / The Jungle Book [мультфильм, мюзикл, приключения, 1967] BDRip 720p, Dub [60 fps]

salma3

0 | 0

4.49 ГБ

В этой теме нет новых непрочитанных сообщений. Малефисента / Maleficent [фэнтези, семейный, мелодрама, 2014] BDRip-HEVC 1080p, Dub [3D-Video] [Лицензия]

salma3

40 | 18

5.84 ГБ


Начать новую тему Ответить на тему  [ 1 сообщение ] 




Для Мосгорсуда, Роскомнадзора и рекламодателей:: mosgorsud-torrent[собачка]yandex.ru
cron