Торрент файл
скачать торрент магнет ссылка Добавлен: 25 окт 2014, 15:06
Размер: 4.89 ГБ
Сидеров: 57
Личеров: 3
Автор

СообщениеДобавлено: 25 окт 2014, 15:06 

Не в сети
Зам. Админа
Аватара пользователя
Дата регистрации:
02 дек 2010, 12:39
Спасибо: 12656 / 214
Сообщения: 28010



Почтальон Пэт
Postman Pat: The Movie



Год выпуска: 2014
Страна: Великобритания, США (Classic Media, RGH Pictures, Timeless Films)
Жанр: Мультфильм, Комедия, Семейный
Продолжительность: 1:27:17

Перевод: Профессиональный дублированный (Blu-Ray 3D)

Режиссер: Майкл Д’Иса-Хоган / Michael D'Isa-Hogan



дублировали
: Стивен Мэнгэн / Антон Савенков (Postman Pat), (Postman Pat, вокал), Джим Бродбент (CEO), Джейн Карр (Mrs. Goggins), Робин Аткин Даунс (Simon Cowbell), Сьюзэн Дюрден (Sara Clifton), Грег Эллис / Даниил Эльдаров (Jimmy), Руперт Гринт (Josh), Дэн Хилдебранд / Пётр Иващенко (Ted Glenn), Парминдер К. Награ (Nisha Bains), Т.Дж. Рамини / Даниил Эльдаров (Ben Taylor), Енн Рейтел (PC Selby / Reverend Timms), Даррен Ричардсон (Alf), Джулиан Стоун (Various), Сандра Телес (Julian Clifton), Дэвид Теннант (Wilf), Питер Вудворд (Carbunkle)



Описание: Сколько нужно почтальонов для спасения мира? Достаточно одного, если он работает в паре с любопытным котом, готовым к любым приключениям.



Премьера: 23 мая 2014 (11 сентября 2014)
Релиз на Blu-Ray (DVD) (Россия): 30 октября 2014
Кассовые сборы: $6 501 519






Качество: BDRip (by Ash61)
Контейнер: MKV
Формат 3D: Half OverUnder / Вертикальная анаморфная стереопара
Порядок ракурсов: левый ракурс первый
Видео кодек: x264
Аудио кодек: AC3



Видео: AVC / 23,976 fps / 1920х1080p / ~6.6 Mbps

Аудио:
#1 - Русский / AC3 / 48 KHz / 5.1 ch / 640 Kbps (Дубляж - BD 3D)
#2 - Английский / AC3 / 48 KHz / 5.1 ch / 640 Kbps (Original - BD 3D)

Субтитры: Отсутствуют

General
Unique ID : 192408798997436998583568913687362940835 (0x90C0963597FC504BA3772A8D579C2FA3)
Complete name : E:PostmanPat.TheMovie(2014)3D-halfOU(Ash61).mkv
Format : Matroska
Format version : Version 2
File size : 4.89 GiB
Duration : 1h 27mn
Overall bit rate : 8 028 Kbps
Movie name : Почтальон Пэт / Postman Pat: The Movie (2014) 3D
Encoded date : UTC 2014-10-25 06:53:23
Writing application : mkvmerge v5.8.0 ('No Sleep / Pillow') built on Sep 2 2012 15:37:04
Writing library : libebml v1.2.3 + libmatroska v1.3.0

Video
ID : 1
Format : AVC
Format/Info : Advanced Video Codec
Format profile : [email protected]
Format settings, CABAC : Yes
Format settings, ReFrames : 4 frames
Codec ID : V_MPEG4/ISO/AVC
Duration : 1h 27mn
Bit rate : 6 588 Kbps
Width : 1 920 pixels
Height : 1 080 pixels
Display aspect ratio : 16:9
Frame rate mode : Constant
Frame rate : 23.976 fps
Color space : YUV
Chroma subsampling : 4:2:0
Bit depth : 8 bits
Scan type : Progressive
Bits/(Pixel*Frame) : 0.133
Stream size : 4.02 GiB (82%)
Title : BDRip by Ash61
Writing library : x264 core 138 r2358 9e941d1
Encoding settings : cabac=1 / ref=4 / deblock=1:-3:-3 / analyse=0x3:0x113 / me=umh / subme=10 / psy=1 / psy_rd=1.00:0.15 / mixed_ref=1 / me_range=32 / chroma_me=1 / trellis=2 / 8x8dct=1 / cqm=0 / deadzone=21,11 / fast_pskip=1 / chroma_qp_offset=-3 / threads=12 / lookahead_threads=2 / sliced_threads=0 / nr=0 / decimate=1 / interlaced=0 / bluray_compat=0 / constrained_intra=0 / bframes=9 / b_pyramid=2 / b_adapt=2 / b_bias=0 / direct=3 / weightb=1 / open_gop=0 / weightp=2 / keyint=250 / keyint_min=23 / scenecut=40 / intra_refresh=0 / rc_lookahead=60 / rc=crf / mbtree=1 / crf=17.5 / qcomp=0.70 / qpmin=0 / qpmax=69 / qpstep=4 / vbv_maxrate=40000 / vbv_bufsize=30000 / crf_max=0.0 / nal_hrd=none / frame-packing=4 / ip_ratio=1.40 / aq=1:0.70
Language : English
Default : Yes
Forced : No

Audio #1
ID : 2
Format : AC-3
Format/Info : Audio Coding 3
Mode extension : CM (complete main)
Format settings, Endianness : Big
Codec ID : A_AC3
Duration : 1h 27mn
Bit rate mode : Constant
Bit rate : 640 Kbps
Channel(s) : 6 channels
Channel positions : Front: L C R, Side: L R, LFE
Sampling rate : 48.0 KHz
Bit depth : 16 bits
Compression mode : Lossy
Stream size : 400 MiB (8%)
Title : Дубляж - BD 3D
Language : Russian
Default : Yes
Forced : No

Audio #2
ID : 3
Format : AC-3
Format/Info : Audio Coding 3
Mode extension : CM (complete main)
Format settings, Endianness : Big
Codec ID : A_AC3
Duration : 1h 27mn
Bit rate mode : Constant
Bit rate : 640 Kbps
Channel(s) : 6 channels
Channel positions : Front: L C R, Side: L R, LFE
Sampling rate : 48.0 KHz
Bit depth : 16 bits
Compression mode : Lossy
Stream size : 400 MiB (8%)
Title : Original - BD 3D
Language : English
Default : No
Forced : No

Menu
00:00:00.000 : :1
00:07:45.382 : :2
00:15:45.611 : :3
00:20:58.215 : :4
00:28:53.815 : :5
00:36:51.000 : :6
00:40:29.469 : :7
00:45:10.583 : :8
00:53:11.647 : :9
01:02:30.205 : :10
01:11:27.241 : :11
01:21:12.201 : :12















Вернуться к началу
 Профиль  
 
   Похожие торренты   Автор   Торрент   Размер 
В этой теме нет новых непрочитанных сообщений. Почтальон / The Postman [фантастика, боевик, драма, 1997] BDRip-HEVC 1080p, Dub

salma3

21 | 7

9.03 ГБ

В этой теме нет новых непрочитанных сообщений. В поисках Дори / Finding Dory [мультфильм, комедия, приключения, семейный, 2016] BDRip 1080p, Dub [3D-Video] [Лицензия]

salma3

155 | 85

10.39 ГБ

В этой теме нет новых непрочитанных сообщений. Почтальон / The Postman [фантастика, боевик, драма, 1997] BDRip-AVC, Dub

salma3

100 | 47

1.45 ГБ

В этой теме нет новых непрочитанных сообщений. Миньоны / Minions (Кайл Балда, Пьер Соффин) [мультфильм, комедия, семейный, 2015] BDRip 1080p, Dub+Sub [3D-Video | Лицензия]

Dracon

342 | 36

11.29 ГБ

В этой теме нет новых непрочитанных сообщений. ЛЕГО Ниндзяго Фильм / The LEGO Ninjago Movie [Мультфильм, боевик, комедия, 2017] BDRemux 1080p, Dub [Лицензия] [3D-Video]

salma3

0 | 0

25.93 ГБ

В этой теме нет новых непрочитанных сообщений. Малефисента / Maleficent [фэнтези, семейный, мелодрама, 2014] BDRip-HEVC 1080p, Dub [3D-Video] [Лицензия]

salma3

40 | 18

5.84 ГБ

В этой теме нет новых непрочитанных сообщений. Капитан Подштанник: Первый эпический фильм / Captain Underpants: The First Epic Movie [мультфильм, боевик, комедия, семейный, 2017] BDRip, Mvo [Лицензия]

salma3

0 | 0

1.46 ГБ


Начать новую тему Ответить на тему  [ 1 сообщение ] 




Для Мосгорсуда, Роскомнадзора и рекламодателей:: mosgorsud-torrent[собачка]yandex.ru
cron