Торрент файл
скачать торрент магнет ссылка Добавлен: 04 авг 2014, 20:15
Размер: 9.22 ГБ
Сидеров: 140
Личеров: 9
Статус: (Dracon)
Автор

СообщениеДобавлено: 04 авг 2014, 20:15 

Не в сети
Зам. Админа
Аватара пользователя
Дата регистрации:
02 дек 2010, 12:39
Спасибо: 12656 / 214
Сообщения: 28010
Год выпуска: 2014
Страна: США (20th Century Fox, DreamWorks Animation)
Жанр: Мультфильм, Фантастика, Комедия, Приключения, Семейный
Продолжительность: 1:32:30

Перевод: Профессиональный дублированный (лицензия)

Режиссер: Роб Минкофф / Rob Minkoff



Роли озвучивали (дублировали): Тай Бурелл () [Mr. Peabody], Макс Чарльз [Sherman], Эриель Винтер (Анна Денисова) [Penny Peterson], Стефен Колбер (Илья Исаев) [Paul Peterson], Лесли Манн [Patty Peterson], Эллисон Дженни [Ms. Grunion], Стэнли Туччи [Леонардо да Винчи], Том МакГрат (Сергей Чихачев) [Одиссей], Лэйк Белл [Мона Лиза], Зак Каллисон (Максим Чихачев) [King Tut], Стив Валентайн (Владимир Антоник) [Ay], Лаури Фрайзер [Мария Антуанетта / египтянка], Гийом Аретос (Никита Прозоровский) [Робеспьер], ...



Описание: Мистер Пибоди — бизнесмен, изобретатель, ученый, нобелевский лауреат, гурман, двукратный олимпийский чемпион и гений… который кроме всего прочего является собакой. При помощи своего самого неординарного изобретения — машины ВЕЙБЕК — мистер Пибоди и его приемный сын Шерман мгновенно перемещаются в прошлое, где становятся свидетелями самых важных исторических событий и общаются с известными историческими персонажами. Но когда Шерман нарушает правила путешествий во времени, нашим героям приходится вновь отправиться в путь — на сей раз с целью восстановления цепи исторических событий и спасения будущего. Кроме того, мистеру Пибоди предстоит справиться с самой сложной для него задачей — стать настоящим отцом для Шермана.

Машина времени в мультфильме называется Wabac machine. Это искаженное написание выражения «Wayback machine».
В кинотеатрах перед мультфильмом демонстрировался короткометражный мультфильм «Почти дома» (2014).
Роберт Дауни-мл. рассматривался на роль мистера Пибоди.
Мистер Пибоди и Шерман являются персонажами мультсериала «Приключения бельчонка Рокки и лосенка Буллвинкля» (1961-1964).
Робу Минкоффу всегда нравилась «Невероятная история Пибоди» (Peabody`s Improbable History) из серии историй про Рокки и Буллвинкля, и он на протяжении многих лет мечтал сделать ее полнометражную адаптацию.
Картину с Буллвинклем из «Шоу Рокки и Буллвинкля» (1959-1964) можно заметить в апартаментах мистера Пибоди.
Сцена, где Пибоди и Шерман запускают воздушных змеев, является аллюзией на опыты Бенджамина Франклина по изучению атмосферного электричества.
Среди воспоминаний мистера Пибоди есть сцена на реке, когда девушка в египетской одежде находит колыбель с младенцем. Это аллюзия на биографию пророка Моисея, найденного и воспитанного дочерью фараона.
В сериале «Симпсоны» мистер Пибоди и Шерман появляются в шестом сезоне в шестой серии (Treehouse of Horror V), где Гомер путешествует во времени.
В финале сцены, когда Шерман заступается за Пибоди со словами «Я — пес!», после чего все присутствующие повторяют фразу «Я — пес!», появляется человек со следующей репликой: «А я Спартак!» Это аллюзия на фильм «Спартак», где в сцене пленения, желая скрыть своего предводителя, восставшие встают друг за другом со словами «Я — Спартак». Внешность Спартака в мультфильме срисована с актера Кирка Дугласа, исполнявшего главную роль в этом фильме.

Премьера: 8 января 2014 (6 марта 2014)
Релиз на Blu-Ray (DVD) (Россия): 14 августа 2014
Бюджет: $145 000 000
Кассовые сборы: $268 617 406






Качество: BDRip (by CHD3D)
Контейнер: MKV
Формат 3D: Half OverUnder / Вертикальная анаморфная стереопара
Порядок ракурсов: левый ракурс первый
Видео кодек: x264
Аудио кодек: AC3



Видео: AVC / 23,976 fps / 1920х1080p / 12.3 Mbps

Аудио:
#1 - Русский / AC3 / 48 KHz / 5.1 ch / 640 Kbps (Дубляж - BD CEE)
#2 - Украинский / AC3 / 48 KHz / 5.1 ch / 448 Kbps (Дубляж - BD CEE)
#3 - Английский / AC3 / 48 KHz / 5.1 ch / 640 Kbps (Original - BD 3D)

Субтитры: (SRT)
Вшитые (softsub):
#1 - Русские Форсированные (включены по умолчанию)
#2 - Русские Полные
#3 - Украинские Форсированные
#4 - Украинские Полные
#5 - English Full
#5 - English SDH
#5 - English SDH-Colored

Внешние (UTF-8):
#1 - Русские Форсированные (включены по умолчанию)
#2 - Украинские Форсированные

General
Unique ID : 186435028969291543377923643420117453152 (0x8C42149B7B6009E48617B7F5E5DE4960)
Complete name : E:MrPeabody&Sherman(2014)3D-halfOUMrPeabody&Sherman(2014)3D-halfOU.mkv
Format : Matroska
Format version : Version 3 / Version 2
File size : 9.22 GiB
Duration : 1h 32mn
Overall bit rate : 14.3 Mbps
Movie name : Приключения мистера Пибоди и Шермана / Mr. Peabody & Sherman (2014) 3D
Encoded date : UTC 2014-08-04 13:48:16
Writing application : mkvmerge v5.8.0 ('No Sleep / Pillow') built on Sep 2 2012 15:37:04
Writing library : libebml v1.2.3 + libmatroska v1.3.0
Attachment : Yes / Yes

Video
ID : 1
Format : AVC
Format/Info : Advanced Video Codec
Format profile : [email protected]
MultiView_Count : 2
MultiView_Layout : Top-Bottom (left eye first)
Format settings, CABAC : Yes
Format settings, ReFrames : 4 frames
Codec ID : V_MPEG4/ISO/AVC
Duration : 1h 32mn
Bit rate : 12.3 Mbps
Width : 1 920 pixels
Height : 1 080 pixels
Display aspect ratio : 16:9
Frame rate mode : Constant
Frame rate : 23.976 fps
Color space : YUV
Chroma subsampling : 4:2:0
Bit depth : 8 bits
Scan type : Progressive
Bits/(Pixel*Frame) : 0.246
Stream size : 7.92 GiB (86%)
Title : BDRip by CHD3D
Writing library : x264 core 142 r2389 956c8d8
Encoding settings : cabac=1 / ref=4 / deblock=1:-3:-3 / analyse=0x3:0x113 / me=umh / subme=10 / psy=1 / psy_rd=1.00:0.00 / mixed_ref=1 / me_range=32 / chroma_me=1 / trellis=2 / 8x8dct=1 / cqm=0 / deadzone=21,11 / fast_pskip=0 / chroma_qp_offset=-4 / threads=6 / lookahead_threads=1 / sliced_threads=0 / nr=0 / decimate=0 / interlaced=0 / bluray_compat=0 / constrained_intra=0 / bframes=6 / b_pyramid=2 / b_adapt=2 / b_bias=0 / direct=3 / weightb=1 / open_gop=0 / weightp=2 / keyint=250 / keyint_min=23 / scenecut=40 / intra_refresh=0 / rc=crf / mbtree=0 / crf=16.0 / qcomp=0.80 / qpmin=0 / qpmax=69 / qpstep=4 / frame-packing=4 / ip_ratio=1.30 / pb_ratio=1.30 / aq=2:0.90
Language : English
Default : Yes
Forced : No

Audio #1
ID : 2
Format : AC-3
Format/Info : Audio Coding 3
Mode extension : CM (complete main)
Format settings, Endianness : Big
Codec ID : A_AC3
Duration : 1h 32mn
Bit rate mode : Constant
Bit rate : 640 Kbps
Channel(s) : 6 channels
Channel positions : Front: L C R, Side: L R, LFE
Sampling rate : 48.0 KHz
Bit depth : 16 bits
Compression mode : Lossy
Stream size : 423 MiB (4%)
Title : Дубляж - BD CEE
Language : Russian
Default : Yes
Forced : No

Audio #2
ID : 3
Format : AC-3
Format/Info : Audio Coding 3
Mode extension : CM (complete main)
Format settings, Endianness : Big
Codec ID : A_AC3
Duration : 1h 32mn
Bit rate mode : Constant
Bit rate : 448 Kbps
Channel(s) : 6 channels
Channel positions : Front: L C R, Side: L R, LFE
Sampling rate : 48.0 KHz
Bit depth : 16 bits
Compression mode : Lossy
Stream size : 296 MiB (3%)
Title : Дубляж - BD CEE
Language : Ukrainian
Default : No
Forced : No

Audio #3
ID : 4
Format : AC-3
Format/Info : Audio Coding 3
Mode extension : CM (complete main)
Format settings, Endianness : Big
Codec ID : A_AC3
Duration : 1h 32mn
Bit rate mode : Constant
Bit rate : 640 Kbps
Channel(s) : 6 channels
Channel positions : Front: L C R, Side: L R, LFE
Sampling rate : 48.0 KHz
Bit depth : 16 bits
Compression mode : Lossy
Stream size : 423 MiB (4%)
Title : Original - BD 3D
Language : English
Default : No
Forced : No

Text #1
ID : 5
Format : UTF-8
Codec ID : S_TEXT/UTF8
Codec ID/Info : UTF-8 Plain Text
Title : Форсированные
Language : Russian
Default : Yes
Forced : No

Text #2
ID : 6
Format : UTF-8
Codec ID : S_TEXT/UTF8
Codec ID/Info : UTF-8 Plain Text
Title : Полные
Language : Russian
Default : No
Forced : No

Text #3
ID : 7
Format : UTF-8
Codec ID : S_TEXT/UTF8
Codec ID/Info : UTF-8 Plain Text
Title : Форсированные
Language : Ukrainian
Default : No
Forced : No

Text #4
ID : 8
Format : UTF-8
Codec ID : S_TEXT/UTF8
Codec ID/Info : UTF-8 Plain Text
Title : Полные
Language : Ukrainian
Default : No
Forced : No

Text #5
ID : 9
Format : UTF-8
Codec ID : S_TEXT/UTF8
Codec ID/Info : UTF-8 Plain Text
Title : Full
Language : English
Default : No
Forced : No

Text #6
ID : 10
Format : UTF-8
Codec ID : S_TEXT/UTF8
Codec ID/Info : UTF-8 Plain Text
Title : SDH
Language : English
Default : No
Forced : No

Text #7
ID : 11
Format : UTF-8
Codec ID : S_TEXT/UTF8
Codec ID/Info : UTF-8 Plain Text
Title : SDH-Colored
Language : English
Default : No
Forced : No

Menu
00:00:00.000 : :1
00:03:48.061 : :2
00:07:12.223 : :3
00:11:02.495 : :4
00:13:30.018 : :5
00:17:29.465 : :6
00:21:48.516 : :7
00:26:39.306 : :8
00:28:40.177 : :9
00:30:53.101 : :10
00:33:57.452 : :11
00:35:29.919 : :12
00:37:47.182 : :13
00:41:27.652 : :14
00:44:47.685 : :15
00:48:16.352 : :16
00:51:48.981 : :17
00:54:56.543 : :18
00:58:32.801 : :19
01:00:49.187 : :20
01:02:53.186 : :21
01:04:39.084 : :22
01:08:22.265 : :23
01:11:13.728 : :24
01:14:52.655 : :25
01:20:27.448 : :26
01:21:40.312 : :27
01:22:39.580 : :28



Вернуться к началу
 Профиль  
 
   Похожие торренты   Автор   Торрент   Размер 
В этой теме нет новых непрочитанных сообщений. Приключение мистера Пибоди и Шермана / Mr. Peabody & Sherman [фантастика, комедия, приключения, семейный, 2014] BDRip, Dub [Лицензия]

salma3

1346 | 38

1.45 ГБ

В этой теме нет новых непрочитанных сообщений. В поисках Дори / Finding Dory [мультфильм, комедия, приключения, семейный, 2016] BDRip 1080p, Dub [3D-Video] [Лицензия]

salma3

155 | 85

10.39 ГБ

В этой теме нет новых непрочитанных сообщений. Ледниковый период: Столкновение неизбежно ( Мультфильм, Фантастика, Комедия, Приключения, Семейный, 2016) BDRip 1080p от Ash61 | 3D-Video | halfOU | iTunes

marya111

155 | 10

8.29 ГБ

В этой теме нет новых непрочитанных сообщений. Ледниковый период: Столкновение неизбежно / Ice Age: Collision Cours [мультфильм, фантастика, комедия, приключения, семейный, 2016] BDRip 1080p, Dub [Лицензия]

salma3

165 | 90

7.79 ГБ

В этой теме нет новых непрочитанных сообщений. Ледниковый период: Столкновение неизбежно / Ice Age: Collision Course (Мультфильм, полнометражный, комедия, приключения, семейный, 2016) BDRemux 1080p от ExKinoRay | 3D-Video | Лицензия

marya111

5 | 1

31.37 ГБ

В этой теме нет новых непрочитанных сообщений. Я, Франкенштейн / I, Frankenstein [фэнтези, фантастика, приключения, 2014] BDRip 1080p HEVC, Dub [3D-Video] [Лицензия]

salma3

50 | 39

8.46 ГБ

В этой теме нет новых непрочитанных сообщений. Аисты / Storks ( Мультфильм, Фэнтези, Комедия, Приключения, Семейный, 2016) BDRip 1080p от Ash61 | 3D-Video | halfOU | iTunes

marya111

129 | 91

9.19 ГБ


Начать новую тему Ответить на тему  [ 1 сообщение ] 




Для Мосгорсуда, Роскомнадзора и рекламодателей:: mosgorsud-torrent[собачка]yandex.ru
cron