Торрент файл
скачать торрент магнет ссылка Добавлен: 21 июл 2014, 09:14
Размер: 8.72 ГБ
Сидеров: 73
Личеров: 16
Статус: (Dracon)
Автор

СообщениеДобавлено: 21 июл 2014, 09:15 

Не в сети
Зам. Админа
Аватара пользователя
Дата регистрации:
02 дек 2010, 12:39
Спасибо: 12652 / 214
Сообщения: 28010
Год выпуска: 2013
Жанр: мультфильм, фантастика, боевик, приключения
Режиссер: Синдзи Арамаки
В ролях: Шун Огури, Аои Ю, Аяно Фукуда, Арата Фурута, Киёси Кобаяси, Харума Миура, Морикава Тосиюки, Тикао Оцука, Маая Сакамото, Миюки Савасиро

О фильме: Далекое будущее. Преступная корпорация Гайя стала злейшим врагом Земли, отобрав у людей все: свободу, дом, будущее… Казалось, что надежды на спасение нет… Но, появился Он — космический пират Харлок, капитан призрачного корабля Аркадия. Беглец, готовый сражаться за Землю. Кто Он, герой или преступник?..



Выпущено: Япония, США, Франция
Продолжительность: 01:55:06
Озвучивание: Дублированное [Чистый звук]
Примечание: Расширенная версия. Недостающие 5 минут перевода озвучены многоголосым переводом.

Формат: MKV
Формат 3D: Half SideBySide / Горизонтальная анаморфная стереопара
Качество: BDRip 1080p
Видео: MPEG-4 AVC, 3500 Кбит/с, 1280x536
Аудио #1: Русский: MP3, 320 Kbps, 48.0 KHz, 2 ch
Аудио #2: японский: DTS, 1 510 Kbps, 48.0 KHz, 6 ch
Субтитры: Русские, английские
Размер: 8.72 GB
General
Unique ID : 222810916195869692996334249398913001489 (0xA79FD250B1C0CEB4B2A4A49CF728E811)
Complete name : G:DownloadsSpace.Pirate.Captain.Harlock.2013.D.BDRip.1080p.3D.mkv
Format : Matroska
Format version : Version 4 / Version 2
File size : 8.72 GiB
Duration : 1h 55mn
Overall bit rate : 10.8 Mbps
Encoded date : UTC 2010-02-22 21:41:31
Writing application : mkvmerge v5.8.0 ('No Sleep / Pillow') built on Nov 13 2012 19:43:22
Writing library : libebml v1.3.0 + libmatroska v1.4.0

Video
ID : 1
Format : AVC
Format/Info : Advanced Video Codec
Format profile : [email protected]
Format settings, CABAC : Yes
Format settings, ReFrames : 4 frames
Codec ID : V_MPEG4/ISO/AVC
Duration : 1h 55mn
Bit rate : 9 000 Kbps
Width : 1 920 pixels
Height : 1 080 pixels
Display aspect ratio : 16:9
Frame rate mode : Constant
Frame rate : 23.976 fps
Color space : YUV
Chroma subsampling : 4:2:0
Bit depth : 8 bits
Scan type : Progressive
Bits/(Pixel*Frame) : 0.181
Stream size : 7.08 GiB (81%)
Writing library : x264 core 129 r2230 1cffe9f
Encoding settings : cabac=1 / ref=4 / deblock=1:-1:-1 / analyse=0x3:0x133 / me=umh / subme=11 / psy=1 / psy_rd=0.60:0.00 / mixed_ref=1 / me_range=64 / chroma_me=1 / trellis=2 / 8x8dct=1 / cqm=0 / deadzone=21,11 / fast_pskip=0 / chroma_qp_offset=-2 / threads=12 / lookahead_threads=2 / sliced_threads=0 / nr=0 / decimate=1 / interlaced=0 / bluray_compat=0 / constrained_intra=0 / bframes=10 / b_pyramid=2 / b_adapt=2 / b_bias=0 / direct=3 / weightb=1 / open_gop=0 / weightp=2 / keyint=250 / keyint_min=23 / scenecut=40 / intra_refresh=0 / rc_lookahead=60 / rc=2pass / mbtree=0 / bitrate=9000 / ratetol=1.0 / qcomp=0.70 / qpmin=0 / qpmax=69 / qpstep=4 / cplxblur=20.0 / qblur=0.5 / vbv_maxrate=40000 / vbv_bufsize=30000 / nal_hrd=none / ip_ratio=1.40 / pb_ratio=1.30 / aq=1:0.80
Language : English
Default : Yes
Forced : No

Audio #1
ID : 2
Format : MPEG Audio
Format version : Version 1
Format profile : Layer 3
Mode : Joint stereo
Codec ID : A_MPEG/L3
Codec ID/Hint : MP3
Duration : 1h 55mn
Bit rate mode : Constant
Bit rate : 320 Kbps
Channel(s) : 2 channels
Sampling rate : 48.0 KHz
Compression mode : Lossy
Stream size : 263 MiB (3%)
Language : Russian
Default : Yes
Forced : No

Audio #2
ID : 3
Format : DTS
Format/Info : Digital Theater Systems
Mode : 16
Format settings, Endianness : Big
Codec ID : A_DTS
Duration : 1h 55mn
Bit rate mode : Constant
Bit rate : 1 509 Kbps
Channel(s) : 6 channels
Channel positions : Front: L C R, Side: L R, LFE
Sampling rate : 48.0 KHz
Bit depth : 24 bits
Compression mode : Lossy
Stream size : 1.21 GiB (14%)
Language : Japanese
Default : No
Forced : No

Text #1
ID : 4
Format : VobSub
Muxing mode : zlib
Codec ID : S_VOBSUB
Codec ID/Info : The same subtitle format used on DVDs
Language : Russian
Default : No
Forced : No

Text #2
ID : 5
Format : VobSub
Muxing mode : zlib
Codec ID : S_VOBSUB
Codec ID/Info : The same subtitle format used on DVDs
Language : English
Default : No
Forced : No




Вернуться к началу
 Профиль  
 
   Похожие торренты   Автор   Торрент   Размер 
В этой теме нет новых непрочитанных сообщений. Первый мститель: Противостояние / Captain America: Civil War [фантастика, боевик, приключения, 2016] BDRip 1080p, Dub [чистый звук]

salma3

886 | 15

11.07 ГБ

В этой теме нет новых непрочитанных сообщений. Первый мститель: Противостояние / Captain America: Civil War [фантастика, боевик, приключения, 2016] BDRip 720p, Dub [чистый звук]

salma3

88 | 5

7.01 ГБ

В этой теме нет новых непрочитанных сообщений. Хороший динозавр / The Good Dinosaur [Мультфильм, фэнтези, комедия, приключения, семейный, 2015] BDRip 1080p, dub [3D-Video | чистый звук]

Dracon

39 | 9

14.07 ГБ

В этой теме нет новых непрочитанных сообщений. Первый мститель: Противостояние / Captain America: Civil War [фантастика, боевик, приключения, 2016] HDRip, Dub [чистый звук]

salma3

792 | 11

2.05 ГБ

В этой теме нет новых непрочитанных сообщений. Первый мститель: Противостояние / Captain America: Civil War [фантастика, боевик, приключения, 2016] HDRip, Dub [чистый звук]

salma3

2211 | 39

1.37 ГБ

В этой теме нет новых непрочитанных сообщений. Первый мститель: Противостояние / Captain America: Civil War [Фантастика, Боевик, Приключения, 2016] BDRip 1080p, Dub [3D-Video] [iTunes]

salma3

53 | 13

10.54 ГБ

В этой теме нет новых непрочитанных сообщений. Макс Стил / Max Steel [фантастика, боевик, приключения, 2016] BDRip 1080p, Dub [Чистый звук]

salma3

432 | 102

7.74 ГБ


Начать новую тему Ответить на тему  [ 1 сообщение ] 




Для Мосгорсуда, Роскомнадзора и рекламодателей:: mosgorsud-torrent[собачка]yandex.ru
cron