Торрент файл
скачать торрент магнет ссылка Добавлен: 05 июл 2014, 10:08
Размер: 7.63 ГБ
Сидеров: 607
Личеров: 32
Статус: (Dracon)
Автор

СообщениеДобавлено: 29 июн 2014, 10:14 

Не в сети
Зам. Админа
Аватара пользователя
Дата регистрации:
02 дек 2010, 12:39
Спасибо: 12656 / 214
Сообщения: 28010
Год выпуска: 2014
Страна: США (20th Century Fox Animation, Blue Sky Studios)
Жанр: Мультфильм, Комедия, Приключения, Семейный
Продолжительность: 1:41:10

Перевод: Профессиональный дублированный - Лицензия

Режиссер: Карлос Салдана / Carlos Saldanha



озвучивали[/font] (дублировали):

............ ............ ............

Jewel - Энн Хэтэуэй (Татьяна Шилина)
Blu - Джесси Айзенберг (Павел Деревянко)
Fernando - Джейк Т. Остин
Audition Bird - Карлиньюс Браун
Gabi - Кристин Ченоуэт
Nigel - Джемейн Клемент (Олег Куценко)
Capoeira Turtle - Джим Конрой
Carla - Рэйчел Кроу (Ульяна Иващенко)
Carnival Barker / Blue Sentry - Бернардо де Паула
Opera Bird - Нола Донкин
Big Boss - Мигель Феррер
Nico - Джейми Фокс (Илья Колесников)
Eduardo - Энди Гарсиа (Сергей Чихачев)
Tulio - Родриго Санторо (Илья Исаев)
Pedro - Уилл Ай Эм (Аркадий Джем)
Rafael - Джордж Лопес (Никита Прозоровский)
Linda - Лесли Манн (Марианна Шульц)
Roberto - Бруно Марс (Пётр Иващенко)
Luiz - Трэйси Морган (Александр Коврижных)



Описание: Голубчик, Жемчужинка и их трое детей живут счастливой жизнью в волшебном городе Рио-де-Жанейро. Когда Жемчужинка решает, что их детям нужно научиться жить как настоящим птицам, она настаивает на авантюрной поездке в дебри реки Амазонки. Там, пытаясь вписаться в новое окружение, Голубчик начинает беспокоиться, что может потерять Жемчужинку и детей, идущих на зов дикой природы.

На одном из постеров к фильму около 150 попугаев вида голубой ара формируют в небе большую цифру 2. Это количество отражает реальную картину популяции вида на 2014 год (большинство из этих птиц находится в неволе).
[*]Этот фильм стал последним для сценариста Дона Раймера.

Премьера: 20 марта 2014
Релиз на Blu-Ray (DVD) (Россия): 10 июля 2014
Бюджет: $103 000 000
Кассовые сборы: $456 903 134






Качество: BDRip (by Ash61)
Контейнер: MKV
Формат 3D: Half OverUnder / Вертикальная анаморфная стереопара
Порядок ракурсов: левый ракурс первый
Видео кодек: x264
Аудио кодек: AC3



Видео: AVC / 23,976 fps / 1920х1080p / ~8.9 Mbps

Аудио:
#1 - Русский / AC3 / 48 KHz / 2 ch / 384 Kbps (Дубляж - Line) (моно)
#2 - Английский / AC3 / 48 KHz / 5.1 ch / 640 Kbps (Original - BD 3D)

Субтитры: Внешние (SRT UTF-8)
#1 - Русские Полные
#2 - Украинские Полные
#3 - English Full
#4 - English Full Colored (with Karaoke-effect)

General
Unique ID : 239825183298762819408902779447898796182 (0xB46CA67311D8C573B572A74EF9C7F096)
Complete name : E:Rio2(2014)3D-halfOU(Ash61)LineRio2(2014)3D-halfOU(Ash61)Line.mkv
Format : Matroska
Format version : Version 2
File size : 7.14 GiB
Duration : 1h 41mn
Overall bit rate : 10.1 Mbps
Movie name : Рио 2 / Rio 2 (2014) 3D
Encoded date : UTC 2014-06-28 21:00:57
Writing application : mkvmerge v5.8.0 ('No Sleep / Pillow') built on Sep 2 2012 15:37:04
Writing library : libebml v1.2.3 + libmatroska v1.3.0

Video
ID : 1
Format : AVC
Format/Info : Advanced Video Codec
Format profile : [email protected]
Format settings, CABAC : Yes
Format settings, ReFrames : 4 frames
Codec ID : V_MPEG4/ISO/AVC
Duration : 1h 41mn
Bit rate : 8 871 Kbps
Width : 1 920 pixels
Height : 1 080 pixels
Display aspect ratio : 16:9
Frame rate mode : Constant
Frame rate : 23.976 fps
Color space : YUV
Chroma subsampling : 4:2:0
Bit depth : 8 bits
Scan type : Progressive
Bits/(Pixel*Frame) : 0.178
Stream size : 6.27 GiB (88%)
Title : BDRip by Ash61
Writing library : x264 core 138 r2358 9e941d1
Encoding settings : cabac=1 / ref=4 / deblock=1:-3:-3 / analyse=0x3:0x113 / me=umh / subme=10 / psy=1 / psy_rd=1.00:0.15 / mixed_ref=1 / me_range=32 / chroma_me=1 / trellis=2 / 8x8dct=1 / cqm=0 / deadzone=21,11 / fast_pskip=1 / chroma_qp_offset=-3 / threads=12 / lookahead_threads=2 / sliced_threads=0 / nr=0 / decimate=1 / interlaced=0 / bluray_compat=0 / constrained_intra=0 / bframes=9 / b_pyramid=2 / b_adapt=2 / b_bias=0 / direct=3 / weightb=1 / open_gop=0 / weightp=2 / keyint=250 / keyint_min=23 / scenecut=40 / intra_refresh=0 / rc_lookahead=60 / rc=crf / mbtree=1 / crf=17.0 / qcomp=0.70 / qpmin=0 / qpmax=69 / qpstep=4 / vbv_maxrate=40000 / vbv_bufsize=30000 / crf_max=0.0 / nal_hrd=none / frame-packing=4 / ip_ratio=1.40 / aq=1:0.70
Language : English
Default : Yes
Forced : No

Audio #1
ID : 2
Format : AC-3
Format/Info : Audio Coding 3
Mode extension : CM (complete main)
Format settings, Endianness : Big
Codec ID : A_AC3
Duration : 1h 41mn
Bit rate mode : Constant
Bit rate : 384 Kbps
Channel(s) : 2 channels
Channel positions : Front: L R
Sampling rate : 48.0 KHz
Bit depth : 16 bits
Compression mode : Lossy
Stream size : 278 MiB (4%)
Title : Дубляж - Line (моно)
Language : Russian
Default : Yes
Forced : No

Audio #2
ID : 3
Format : AC-3
Format/Info : Audio Coding 3
Mode extension : CM (complete main)
Format settings, Endianness : Big
Codec ID : A_AC3
Duration : 1h 41mn
Bit rate mode : Constant
Bit rate : 640 Kbps
Channel(s) : 6 channels
Channel positions : Front: L C R, Side: L R, LFE
Sampling rate : 48.0 KHz
Bit depth : 16 bits
Compression mode : Lossy
Stream size : 463 MiB (6%)
Title : Original - BD 3D
Language : English
Default : No
Forced : No

Menu
00:00:00.000 : :1
00:03:10.814 : :2
00:05:14.314 : :3
00:08:49.361 : :4
00:13:02.239 : :5
00:17:36.305 : :6
00:19:19.407 : :7
00:22:30.347 : :8
00:26:48.690 : :9
00:29:00.154 : :10
00:30:59.691 : :11
00:33:46.566 : :12
00:36:34.190 : :13
00:39:20.231 : :14
00:41:32.655 : :15
00:45:05.119 : :16
00:47:23.090 : :17
00:49:58.161 : :18
00:52:05.454 : :19
00:55:38.918 : :20
00:58:10.903 : :21
01:02:11.393 : :22
01:04:38.081 : :23
01:07:03.936 : :24
01:09:18.194 : :25
01:10:21.341 : :26
01:15:17.762 : :27
01:17:00.157 : :28
01:21:41.854 : :29
01:25:24.618 : :30
01:29:42.710 : :31
01:32:27.958 : :32





Вернуться к началу
 Профиль  
 
   Похожие торренты   Автор   Торрент   Размер 
В этой теме нет новых непрочитанных сообщений. В поисках Дори / Finding Dory [мультфильм, комедия, приключения, семейный, 2016] BDRip 1080p, Dub [3D-Video] [Лицензия]

salma3

155 | 85

10.39 ГБ

В этой теме нет новых непрочитанных сообщений. Миньоны / Minions (Кайл Балда, Пьер Соффин) [мультфильм, комедия, семейный, 2015] BDRip 1080p, Dub+Sub [3D-Video | Лицензия]

Dracon

342 | 36

11.29 ГБ

В этой теме нет новых непрочитанных сообщений. Ледниковый период: Столкновение неизбежно / Ice Age: Collision Course (Мультфильм, полнометражный, комедия, приключения, семейный, 2016) BDRemux 1080p от ExKinoRay | 3D-Video | Лицензия

marya111

5 | 1

31.37 ГБ

В этой теме нет новых непрочитанных сообщений. Аисты / Storks ( Мультфильм, Фэнтези, Комедия, Приключения, Семейный, 2016) BDRip 1080p от Ash61 | 3D-Video | halfOU | iTunes

marya111

129 | 91

9.19 ГБ

В этой теме нет новых непрочитанных сообщений. Волки и овцы: бе-е-е-зумное превращение (Мультфильм, Семейный, Комедия, Приключения, 2016) BDRip 1080p от Ash61 | 3D-Video | halfOU | iTunes

marya111

91 | 32

8.87 ГБ

В этой теме нет новых непрочитанных сообщений. Хороший динозавр / The Good Dinosaur [Мультфильм, фэнтези, комедия, приключения, семейный, 2015] BDRip 1080p, dub [3D-Video | чистый звук]

Dracon

39 | 9

14.07 ГБ

В этой теме нет новых непрочитанных сообщений. Ледниковый период: Столкновение неизбежно ( Мультфильм, Фантастика, Комедия, Приключения, Семейный, 2016) BDRip 1080p от Ash61 | 3D-Video | halfOU | iTunes

marya111

155 | 10

8.29 ГБ


Начать новую тему Ответить на тему  [ 1 сообщение ] 




Для Мосгорсуда, Роскомнадзора и рекламодателей:: mosgorsud-torrent[собачка]yandex.ru
cron