Торрент файл
скачать торрент магнет ссылка Добавлен: 16 ноя 2013, 09:57
Размер: 10.45 ГБ
Сидеров: 30
Личеров: 7
Автор

СообщениеДобавлено: 16 ноя 2013, 09:57 

Не в сети
Зам. Админа
Аватара пользователя
Дата регистрации:
02 дек 2010, 12:39
Спасибо: 12656 / 214
Сообщения: 28010
Год выпуска: 2013
Жанр: Мультфильм, фэнтези, комедия, семейный
Выпущено: США, Kerner Entertainment Company, Columbia Pictures, Sony Pictures Animation
Режиссер: Раджа Госнелл
В ролях: Хэнк Азария, Нил Патрик Харрис, Брендан Глисон, Джейма Мейс, Джонатан Уинтерс, Кэти Перри, Кристина Риччи, Дж.Б. Смув, Джордж Лопес, Антон Ельчин

О фильме: Смурфики объединятся с их человеческими друзьями, чтобы спасти Смурфетту, которая была похищена Гаргамелем, после того как узнала секретное заклинание, которое может превратить новое творение злого мага в Смурф. Смурфиков и их новых друзей ожидает захватывающее приключение и новая встреча со злодейским Гаргамелем, у которого свои планы на синих гномиков

Качество: BDRip (1080p)
Видео: MPEG-4 AVC, 11200 Кбит/с, 1920x1080
Аудио: Русский, украинский (AC3, 6 ch, 640 Кбит/с), английский (DTS, 6 ch, 1510 Кбит/c)
Размер: 10.45 ГБ
Продолжительность: 01:44:54
Перевод: Дублированный [лицензия]
Субтитры: Русские, английские

Формат 3D: Вертикальная анаморфная стереопара. Для просмотра этого фильма в 3D формате необходимо соответствующее оборудование.

Общее
Уникальный идентификатор : 182887565469263582986336832907197776960 (0x8996DD27322D6721B8E37E441C178440)
Полное имя : D:The.Smurfs.2.3D.2013.1080p.BluRay.Half-OU.mkv
Формат : Matroska
Версия формата : Version 2
Размер файла : 10,5 Гбайт
Продолжительность : 1 ч. 44 м.
Общий поток : 14,3 Мбит/сек
Дата кодирования : UTC 2013-11-16 01:19:48
Программа кодирования : mkvmerge v6.3.0 ('You can't stop me!') built on Jun 28 2013 20:09:41
Библиотека кодирования : libebml v1.3.0 + libmatroska v1.4.0
Видео
Идентификатор : 1
Формат : AVC
Формат/Информация : Advanced Video Codec
Профиль формата : [email protected]
Параметр CABAC формата : Да
Параметр ReFrames формата : 2 кадра
Идентификатор кодека : V_MPEG4/ISO/AVC
Продолжительность : 1 ч. 44 м.
Битрейт : 11,2 Мбит/сек
Ширина : 1920 пикселей
Высота : 1080 пикселей
Соотношение сторон : 16:9
Режим частоты кадров : Постоянный
Частота кадров : 23,976 кадра/сек
Цветовое пространство : YUV
Субдискретизация насыщенности : 4:2:0
Битовая глубина : 8 бит
Тип развёртки : Прогрессивная
Бит/(Пиксели*Кадры) : 0.225
Размер потока : 8,20 Гбайт (78%)
Библиотека кодирования : x264 core
Язык : English
Default : Да
Forced : Нет
Основные цвета : BT.709
Характеристики трансфера : BT.709
Коэффициенты матрицы : BT.709
Аудио #1
Идентификатор : 2
Формат : AC-3
Формат/Информация : Audio Coding 3
Расширение режима : CM (complete main)
Параметр Endianness формата : Big
Идентификатор кодека : A_AC3
Продолжительность : 1 ч. 44 м.
Вид битрейта : Постоянный
Битрейт : 640 Кбит/сек
Каналы : 6 каналов
Расположение каналов : Front: L C R, Side: L R, LFE
Частота : 48,0 КГц
Битовая глубина : 16 бит
Метод сжатия : С потерями
Размер потока : 480 Мбайт (4%)
Язык : Russian
Default : Да
Forced : Нет
Аудио #2
Идентификатор : 3
Формат : AC-3
Формат/Информация : Audio Coding 3
Расширение режима : CM (complete main)
Параметр Endianness формата : Big
Идентификатор кодека : A_AC3
Продолжительность : 1 ч. 44 м.
Вид битрейта : Постоянный
Битрейт : 640 Кбит/сек
Каналы : 6 каналов
Расположение каналов : Front: L C R, Side: L R, LFE
Частота : 48,0 КГц
Битовая глубина : 16 бит
Метод сжатия : С потерями
Размер потока : 480 Мбайт (4%)
Язык : Ukrainian
Default : Нет
Forced : Нет
Аудио #3
Идентификатор : 4
Формат : DTS
Формат/Информация : Digital Theater Systems
Режим : 16
Параметр Endianness формата : Big
Идентификатор кодека : A_DTS
Продолжительность : 1 ч. 44 м.
Вид битрейта : Постоянный
Битрейт : 1509 Кбит/сек
Каналы : 6 каналов
Расположение каналов : Front: L C R, Side: L R, LFE
Частота : 48,0 КГц
Битовая глубина : 24 бит
Метод сжатия : С потерями
Размер потока : 1,11 Гбайт (11%)
Язык : English
Default : Нет
Forced : Нет
Текст #1
Идентификатор : 5
Формат : UTF-8
Идентификатор кодека : S_TEXT/UTF8
Идентификатор кодека/Информация : UTF-8 Plain Text
Язык : Russian
Default : Нет
Forced : Нет
Текст #2
Идентификатор : 6
Формат : UTF-8
Идентификатор кодека : S_TEXT/UTF8
Идентификатор кодека/Информация : UTF-8 Plain Text
Язык : English
Default : Нет
Forced : Нет
Меню
00:00:00.000 : en:00:00:00.000
00:05:00.133 : en:00:05:00.133
00:11:12.755 : en:00:11:12.755
00:18:14.093 : en:00:18:14.093
00:23:18.522 : en:00:23:18.522
00:27:54.590 : en:00:27:54.590
00:34:25.480 : en:00:34:25.480
00:41:09.342 : en:00:41:09.342
00:46:10.434 : en:00:46:10.434
00:50:59.098 : en:00:50:59.098
00:56:47.863 : en:00:56:47.863
01:02:33.875 : en:01:02:33.875
01:07:06.773 : en:01:07:06.773
01:14:10.196 : en:01:14:10.196
01:21:05.819 : en:01:21:05.819
01:28:24.591 : en:01:28:24.591







Вернуться к началу
 Профиль  
 
   Похожие торренты   Автор   Торрент   Размер 
В этой теме нет новых непрочитанных сообщений. Смурфики: Затерянная деревня / Smurfs: The Lost Village [Мультфильм, фэнтези, комедия, 2017] BDRip 1080p, Dub [3D-Video] [iTunes]

salma3

85 | 48

7.26 ГБ

В этой теме нет новых непрочитанных сообщений. Смурфики 2 / The Smurfs 2 [мультфильм, фэнтези, комедия, 2013] BDRip 2160p, Dub

salma3

2 | 3

34.61 ГБ

В этой теме нет новых непрочитанных сообщений. Смурфики / The Smurfs [Мультфильм, фэнтези, семейный, 2011] UHD BDRemux 2160p, Dub [Лицензия]

salma3

0 | 0

51.11 ГБ

В этой теме нет новых непрочитанных сообщений. Смурфики: Затерянная деревня / Smurfs: The Lost Village [мультфильм, фэнтези, комедия, 2017] Blu-Ray CEE 1080p, Dub [Лицензия]

salma3

6 | 22

32.78 ГБ

В этой теме нет новых непрочитанных сообщений. Смурфики: Затерянная деревня / Smurfs: The Lost Village [Мультфильм, фэнтези, комедия, 2017] BDRip, Dub [Лицензия]

salma3

721 | 56

1.46 ГБ

В этой теме нет новых непрочитанных сообщений. Смурфики: Затерянная деревня / Smurfs: The Lost Village [Мультфильм, фэнтези, комедия, 2017] BDRip 720p, Dub [Лицензия]

salma3

68 | 15

6.18 ГБ

В этой теме нет новых непрочитанных сообщений. Смурфики: Затерянная деревня / Smurfs: The Lost Village [мультфильм, фэнтези, комедия, 2017] TS, Dub

salma3

3253 | 303

1.37 ГБ


Начать новую тему Ответить на тему  [ 1 сообщение ] 




Для Мосгорсуда, Роскомнадзора и рекламодателей:: mosgorsud-torrent[собачка]yandex.ru
cron