Торрент файл
скачать торрент магнет ссылка Добавлен: 28 апр 2013, 11:14
Размер: 5.21 ГБ
Сидеров: 72
Личеров: 21
Автор

СообщениеДобавлено: 28 апр 2013, 11:14 

Не в сети
Зам. Админа
Аватара пользователя
Дата регистрации:
02 дек 2010, 12:39
Спасибо: 12656 / 214
Сообщения: 28010
Летающая машина / Волшебная страна / The Flying Machine



Страна: Великобритания, Польша, Китай, Индия, Норвегия
Студия: Breakthru Films, SMB Investments
Жанр:мультфильм, приключения, семейный
Год выпуска: 2011
Продолжительность: 01:16:15

Перевод: русский профессиональный (многоголосый, закадровый) [лицензия, BD3D]
Оригинальная аудиодорожка: английская
Русские субтитры: есть
Режиссер: Мартин Клэпп, Дорота Кобеля, Джофф Линдси / Martin Clapp, Dorota Kobiela, Geoff Lindsey
Роли озвучивали: Хэзер Грэм, Лэнг Лэнг, Джэми Муннс, Киззи Ми


Фильм рассказывает о занятой бизнес-леди Джорджи, которая берёт своих детей на просмотр мультфильма «Волшебное фортепиано», в котором всемирно известный пианист Ланг Ланг исполняет Шопена вживую. Главной героиней мультфильма является Анна — девочка, чей отец был вынужден уехать из Польши на заработки в Лондон. Однажды, Анна и её двоюродный брат Чип-Чип находят сломанное фортепиано, которое магическим образом превращается в летающую машину. На ней, дети отправляются в путешествие по Европе, в надежде найти отца девочки.
Когда мультфильм заканчивается, Джорджи теряет своих детей и они попадают в волшебный анимационный мир, в котором женщине и предстоит их найти.

Качество: BDRip 1080p
Контейнер: MKV
Формат 3D: Half OverUnder / Вертикальная анаморфная стереопара
Порядок ракурсов: левый ракурс первый
Поддержка автоматического запуска 3D на вашем TV (frame paking): да
Видео кодек: x264
Аудио кодек: AC3
Видео: AVC / [email protected] / 2 pass / 23,976 fps / 1920x1080p / 8,5 Mbps / 0.171
Аудио 1: AC3 / 5.1 ch / 640 kbps / Русский дубляж [лицензия, BD3D]
Аудио 2: AC3 / 5.1 ch / 640 kbps / Английский original [лицензия, BD3D]
Субтитры: (softsub, SRT)
Русские, Full, BD3D
Дополнительно: Сохранены оригинальные чаптеры как на Blu-ray
Рип (видеоряд) от: Killbrain


Раздача от:










x264 [info]: frame I:940Avg QP:16.63size:263135
x264 [info]: frame P:26326 Avg QP:19.37size: 92399
x264 [info]: frame B:82439 Avg QP:20.97size: 26454

Общее
Уникальный идентификатор: 204927059717760052955827260707460904307 (0x9A2B841D54EBA4AA8801AC9C27647573)
Полное имя: F:Скачка торрентThe.Flying.Machine.3D.2011.BDRip1080p.halfOU(Killbrain).mkv
Формат: Matroska
Версия формата: Version 4 / Version 2
Размер файла: 5,21 Гбайт
Продолжительность: 1 ч. 16 м.
Общий поток: 9781 Кбит/сек
Название фильма: The Flying Machine 3D (2011) by Killbrain
Дата кодирования: UTC 2013-04-27 17:44:06
Программа кодирования: mkvmerge v6.1.0 ('Old Devil') built on Mar2 2013 14:32:37
Библиотека кодирования: libebml v1.3.0 + libmatroska v1.4.0

Видео
Идентификатор: 1
Формат: AVC
Формат/Информация: Advanced Video Codec
Профиль формата: [email protected]
Параметр CABAC формата: Да
Параметр ReFrames формата: 4 кадра
Идентификатор кодека: V_MPEG4/ISO/AVC
Продолжительность: 1 ч. 16 м.
Битрейт: 8500 Кбит/сек
Ширина: 1920 пикселей
Высота: 1080 пикселей
Соотношение сторон: 16:9
Режим частоты кадров: Постоянный
Частота кадров: 23,976 кадра/сек
Цветовое пространство: YUV
Субдискретизация насыщенности: 4:2:0
Битовая глубина: 8 бит
Тип развёртки: Прогрессивная
Бит/(Пиксели*Кадры): 0.171
Размер потока: 4,42 Гбайт (85%)
Заголовок: The Flying Machine 3D (2011)
Библиотека кодирования: x264 core 132 r2309 3b1f1f7
Настройки программы: cabac=1 / ref=4 / deblock=1:-2:-2 / analyse=0x3:0x113 / me=umh / subme=9 / psy=1 / psy_rd=1.00:0.40 / mixed_ref=1 / me_range=16 / chroma_me=1 / trellis=2 / 8x8dct=1 / cqm=0 / deadzone=21,11 / fast_pskip=0 / chroma_qp_offset=-4 / threads=3 / lookahead_threads=1 / sliced_threads=0 / nr=0 / decimate=0 / interlaced=0 / bluray_compat=0 / constrained_intra=0 / bframes=6 / b_pyramid=2 / b_adapt=2 / b_bias=0 / direct=3 / weightb=1 / open_gop=0 / weightp=2 / keyint=240 / keyint_min=23 / scenecut=40 / intra_refresh=0 / rc_lookahead=60 / rc=2pass / mbtree=0 / bitrate=8500 / ratetol=1.0 / qcomp=0.65 / qpmin=0 / qpmax=69 / qpstep=4 / cplxblur=20.0 / qblur=0.5 / vbv_maxrate=40000 / vbv_bufsize=30000 / nal_hrd=none / frame-packing=4 / ip_ratio=1.40 / pb_ratio=1.30 / aq=1:0.70
Язык: English
Default: Да
Forced: Нет

Аудио #1
Идентификатор: 2
Формат: AC-3
Формат/Информация: Audio Coding 3
Расширение режима: CM (complete main)
Параметр Endianness формата: Big
Идентификатор кодека: A_AC3
Продолжительность: 1 ч. 16 м.
Вид битрейта: Постоянный
Битрейт: 640 Кбит/сек
Каналы: 6 каналов
Расположение каналов: Front: L C R, Side: L R, LFE
Частота: 48,0 КГц
Битовая глубина: 16 бит
Метод сжатия: С потерями
Размер потока: 349 Мбайт (7%)
Заголовок: AC3 / 5.1 ch / 640 kbps / Русский MVO, BD3D
Язык: Russian
Default: Да
Forced: Нет

Аудио #2
Идентификатор: 3
Формат: AC-3
Формат/Информация: Audio Coding 3
Расширение режима: CM (complete main)
Параметр Endianness формата: Big
Идентификатор кодека: A_AC3
Продолжительность: 1 ч. 16 м.
Вид битрейта: Постоянный
Битрейт: 640 Кбит/сек
Каналы: 6 каналов
Расположение каналов: Front: L C R, Side: L R, LFE
Частота: 48,0 КГц
Битовая глубина: 16 бит
Метод сжатия: С потерями
Размер потока: 349 Мбайт (7%)
Заголовок: AC3 / 5.1 ch / 640 kbps / Английский original, BD3D
Язык: English
Default: Нет
Forced: Нет

Текст
Идентификатор: 4
Формат: UTF-8
Идентификатор кодека: S_TEXT/UTF8
Идентификатор кодека/Информация: UTF-8 Plain Text
Заголовок: Full, BD3D
Язык: Russian
Default: Нет
Forced: Нет

Меню
00:00:00.000: :Chapter 01
00:08:45.775: :Chapter 02
00:16:40.082: :Chapter 03
00:22:41.610: :Chapter 04
00:28:02.764: :Chapter 05
00:34:39.994: :Chapter 06
00:37:07.850: :Chapter 07
00:43:31.275: :Chapter 08
00:48:38.206: :Chapter 09
00:54:54.582: :Chapter 10
01:04:44.380: :Chapter 11
01:10:40.778: :Chapter 12





Вернуться к началу
 Профиль  
 
   Похожие торренты   Автор   Торрент   Размер 
В этой теме нет новых непрочитанных сообщений. Машина времени / The Time Machine [Фантастика, приключения, экранизация, 2002] WEB-DL 1080p, Dub

salma3

0 | 0

8.35 ГБ

В этой теме нет новых непрочитанных сообщений. Машина времени / The Time Machine [Фантастика, приключения, 2002] HD-DVD Remux 1080p, Dub

salma3

0 | 0

18.67 ГБ

В этой теме нет новых непрочитанных сообщений. В поисках Дори / Finding Dory [мультфильм, комедия, приключения, семейный, 2016] BDRip 1080p, Dub [3D-Video] [Лицензия]

salma3

155 | 85

10.39 ГБ

В этой теме нет новых непрочитанных сообщений. Аисты / Storks ( Мультфильм, Фэнтези, Комедия, Приключения, Семейный, 2016) BDRip 1080p от Ash61 | 3D-Video | halfOU | iTunes

marya111

129 | 91

9.19 ГБ

В этой теме нет новых непрочитанных сообщений. Волки и овцы: бе-е-е-зумное превращение (Мультфильм, Семейный, Комедия, Приключения, 2016) BDRip 1080p от Ash61 | 3D-Video | halfOU | iTunes

marya111

91 | 32

8.87 ГБ

В этой теме нет новых непрочитанных сообщений. Хороший динозавр / The Good Dinosaur [Мультфильм, фэнтези, комедия, приключения, семейный, 2015] BDRip 1080p, dub [3D-Video | чистый звук]

Dracon

39 | 9

14.07 ГБ

В этой теме нет новых непрочитанных сообщений. Ледниковый период: Столкновение неизбежно ( Мультфильм, Фантастика, Комедия, Приключения, Семейный, 2016) BDRip 1080p от Ash61 | 3D-Video | halfOU | iTunes

marya111

155 | 10

8.29 ГБ


Начать новую тему Ответить на тему  [ 1 сообщение ] 




Для Мосгорсуда, Роскомнадзора и рекламодателей:: mosgorsud-torrent[собачка]yandex.ru
cron