Торрент файл
скачать торрент магнет ссылка Добавлен: 16 фев 2013, 10:00
Размер: 10.33 ГБ
Сидеров: 111
Личеров: 27
Автор

СообщениеДобавлено: 16 фев 2013, 10:00 

Не в сети
Зам. Админа
Аватара пользователя
Дата регистрации:
02 дек 2010, 12:39
Спасибо: 12656 / 214
Сообщения: 28010
Обитель зла: Проклятие в 3Д / Biohazard: Damnation 3D
«Больше монстров, больше пушек, больше экшена.»



Страна: Япония
Студия: Capcom Company, Digital Frontier, Sony Pictures Entertainment
Жанр:мультфильм, ужасы, фантастика, боевик, триллер
Год выпуска: 2012
Продолжительность: 01:40:02

Перевод: профессиональный (многоголосый, закадровый) [Лицензия, BD EUR]
Забугорная аудиодорожка: английская
Русские субтитры: есть
Режиссер: Макото Камия / Makoto Kamiya
Роли озвучивали: Мэттью Мерсер, Дейв Уиттенберг, Уэнди Ли, Вэл Тассо, Робин Сакс, Кортни Тейлор, Салли Саффиоти, Дэвид Эрнест, Патрик Сэйтц, Майкл МакКоннохи


Продолжение популярной компьютерной анимации «Обитель зла: Вырождение». Леон Кеннеди отправляется в Восточную Европу на борьбу с монстрами — порождениями корпорации Амбрела. Больше монстров, больше пушек, больше экшена.

Качество: BDRip 1080p
Контейнер: MKV
Формат 3D: Half OverUnder / Вертикальная анаморфная стереопара
Порядок ракурсов: левый ракурс первый
Поддержка автоматического запуска 3D на вашем TV (frame paking): да
Видео кодек: x264
Аудио кодек: AC3
Видео: AVC / [email protected] / 2 pass / 23,976 fps / 1920x1080p / 13,5 Mbps / 0.272
Аудио 1: AC3 / 5.1 ch / 640 kbps / Русский MVO BD EUR
Аудио 2: AC3 / 5.1 ch / 640 kbps / Английский BD EUR
Субтитры: [softsub SRT]
Русские Full
Украинские Full
Английские Full
Дополнительно: Сохранены оригинальные чаптеры как на Blu-ray
Рип от: Killbrain


Раздача от:








Проверено на оборудовании:
3D медиаплеер: iconBIT XDS73D
3D телевизор: 3D LED-Телевизор 40" Samsung UE40 ES6850M




x264 [info]: frame I:996Avg QP:14.53size:273167
x264 [info]: frame P:35488 Avg QP:16.47size:130537
x264 [info]: frame B:107420 Avg QP:18.42size: 48626

Общее
Уникальный идентификатор: 217373654880802561473992419403918618762 (0xA388A4A29148B260B70F411F1D2A308A)
Полное имя: F:Скачка торрентBiohazard.Damnation.3D.2012.BDRip1080p.halfOU(Killbrain).mkv
Формат: Matroska
Версия формата: Version 4 / Version 2
Размер файла: 10,3 Гбайт
Продолжительность: 1 ч. 40 м.
Общий поток: 14,8 Мбит/сек
Название фильма: Biohazard: Damnation 3D (2012) by Killbrain
Дата кодирования: UTC 2010-02-22 21:41:31
Программа кодирования: mkvmerge v5.9.0 ('On The Loose') built on Dec9 2012 15:37:01
Библиотека кодирования: libebml v1.3.0 + libmatroska v1.4.0

Видео
Идентификатор: 1
Формат: AVC
Формат/Информация: Advanced Video Codec
Профиль формата: [email protected]
Параметр CABAC формата: Да
Параметр ReFrames формата: 4 кадра
Идентификатор кодека: V_MPEG4/ISO/AVC
Продолжительность: 1 ч. 40 м.
Битрейт: 13,5 Мбит/сек
Ширина: 1920 пикселей
Высота: 1080 пикселей
Соотношение сторон: 16:9
Режим частоты кадров: Постоянный
Частота кадров: 23,976 кадра/сек
Цветовое пространство: YUV
Субдискретизация насыщенности: 4:2:0
Битовая глубина: 8 бит
Тип развёртки: Прогрессивная
Бит/(Пиксели*Кадры): 0.272
Размер потока: 9,23 Гбайт (89%)
Заголовок: Biohazard: Damnation 3D (2012)
Библиотека кодирования: x264 core 128 r2216 198a7ea
Настройки программы: cabac=1 / ref=4 / deblock=1:-2:-2 / analyse=0x3:0x113 / me=umh / subme=9 / psy=1 / psy_rd=1.00:0.40 / mixed_ref=1 / me_range=16 / chroma_me=1 / trellis=2 / 8x8dct=1 / cqm=0 / deadzone=21,11 / fast_pskip=1 / chroma_qp_offset=-4 / threads=3 / lookahead_threads=1 / sliced_threads=0 / nr=0 / decimate=0 / interlaced=0 / bluray_compat=0 / constrained_intra=0 / bframes=6 / b_pyramid=2 / b_adapt=2 / b_bias=0 / direct=3 / weightb=1 / open_gop=0 / weightp=2 / keyint=240 / keyint_min=23 / scenecut=40 / intra_refresh=0 / rc_lookahead=60 / rc=2pass / mbtree=0 / bitrate=13500 / ratetol=1.0 / qcomp=0.65 / qpmin=0 / qpmax=69 / qpstep=4 / cplxblur=20.0 / qblur=0.5 / vbv_maxrate=40000 / vbv_bufsize=40000 / nal_hrd=none / frame-packing=4 / ip_ratio=1.40 / pb_ratio=1.30 / aq=1:0.70
Язык: English
Default: Да
Forced: Нет

Аудио #1
Идентификатор: 2
Формат: AC-3
Формат/Информация: Audio Coding 3
Расширение режима: CM (complete main)
Параметр Endianness формата: Big
Идентификатор кодека: A_AC3
Продолжительность: 1 ч. 40 м.
Вид битрейта: Постоянный
Битрейт: 640 Кбит/сек
Каналы: 6 каналов
Расположение каналов: Front: L C R, Side: L R, LFE
Частота: 48,0 КГц
Битовая глубина: 16 бит
Метод сжатия: С потерями
Размер потока: 458 Мбайт (4%)
Заголовок: AC3 / 5.1 ch / 640 kbps / Русский MVO BD EUR
Язык: Russian
Default: Да
Forced: Нет

Аудио #2
Идентификатор: 3
Формат: AC-3
Формат/Информация: Audio Coding 3
Расширение режима: CM (complete main)
Параметр Endianness формата: Big
Идентификатор кодека: A_AC3
Продолжительность: 1 ч. 40 м.
Вид битрейта: Постоянный
Битрейт: 640 Кбит/сек
Каналы: 6 каналов
Расположение каналов: Front: L C R, Side: L R, LFE
Частота: 48,0 КГц
Битовая глубина: 16 бит
Метод сжатия: С потерями
Размер потока: 458 Мбайт (4%)
Заголовок: AC3 / 5.1 ch / 640 kbps / Английский BD EUR
Язык: English
Default: Нет
Forced: Нет

Текст #1
Идентификатор: 4
Формат: UTF-8
Идентификатор кодека: S_TEXT/UTF8
Идентификатор кодека/Информация: UTF-8 Plain Text
Заголовок: Full
Язык: Russian
Default: Нет
Forced: Нет

Текст #2
Идентификатор: 5
Формат: UTF-8
Идентификатор кодека: S_TEXT/UTF8
Идентификатор кодека/Информация: UTF-8 Plain Text
Заголовок: Full
Язык: Ukrainian
Default: Нет
Forced: Нет

Текст #3
Идентификатор: 6
Формат: UTF-8
Идентификатор кодека: S_TEXT/UTF8
Идентификатор кодека/Информация: UTF-8 Plain Text
Заголовок: Full
Язык: English
Default: Нет
Forced: Нет

Меню
00:00:00.000: :Chapter 01
00:05:33.291: :Chapter 02
00:12:54.273: :Chapter 03
00:18:29.024: :Chapter 04
00:23:53.390: :Chapter 05
00:30:05.678: :Chapter 06
00:36:03.119: :Chapter 07
00:41:56.805: :Chapter 08
00:49:32.969: :Chapter 09
00:54:01.112: :Chapter 10
00:58:42.310: :Chapter 11
01:04:56.475: :Chapter 12
01:13:45.504: :Chapter 13
01:17:46.953: :Chapter 14
01:23:22.205: :Chapter 15
01:28:23.673: :Chapter 16








Вернуться к началу
 Профиль  
 
   Похожие торренты   Автор   Торрент   Размер 
В этой теме нет новых непрочитанных сообщений. Обитель зла: Последняя глава / Resident Evil: The Final Chapter [Ужасы, фантастика, боевик, триллер, 2016] Blu-Ray 1080p, Dub [3D-Video] [Лицензия]

salma3

56 | 70

34.67 ГБ

В этой теме нет новых непрочитанных сообщений. Обитель зла: Последняя глава / Resident Evil: The Final Chapter [Ужасы, фантастика, боевик, триллер, 2016] BDRemux 1080p, Dub+Sub [3D Video] [iTunes]

salma3

102 | 60

26.83 ГБ

В этой теме нет новых непрочитанных сообщений. Обитель зла: Последняя глава / Resident Evil: The Final Chapter [ужасы, фантастика, боевик, триллер, 2016] BDRip 1080p, Dub+Sub [Лицензия]

salma3

1136 | 442

8.41 ГБ

В этой теме нет новых непрочитанных сообщений. Обитель зла: Пенталогия / Resident Evil: Pentalogy [жасы, фантастика, боевик, 2002-2012] BDRip 1080p, Dub+Sub [лицензия]

salma3

142 | 220

40.77 ГБ

В этой теме нет новых непрочитанных сообщений. Обитель зла: Последняя глава / Resident Evil: The Final Chapter [Ужасы, фантастика, боевик, триллер, 2016] BDRip, Dub+Sub [Лицензия]

salma3

319 | 75

2.18 ГБ

В этой теме нет новых непрочитанных сообщений. Обитель зла: Вендетта / Resident Evil: Vendetta [мультфильм, ужасы, фантастика, 2017] WEB-DL 1080p, Dub [iTunes]

salma3

1035 | 641

4.06 ГБ

В этой теме нет новых непрочитанных сообщений. Обитель зла: Вендетта / Resident Evil: Vendetta [мультфильм, ужасы, фантастика, 2017] BDRip, Dub [Лицензия]

salma3

0 | 0

1.46 ГБ


СообщениеДобавлено: 25 фев 2013, 19:03 

Не в сети
Дата регистрации:
25 фев 2013, 18:59
Спасибо: 0 / 0
Сообщения: 1
а где коменты то?


Вернуться к началу
 Профиль Отправить личное сообщение  
 

СообщениеДобавлено: 03 июн 2013, 21:15 

Не в сети
Дата регистрации:
03 июн 2013, 20:57
Спасибо: 0 / 2
Сообщения: 3
любителям данной тематики советую,вполне интересный.


Вернуться к началу
 Профиль Отправить личное сообщение  
 
Начать новую тему Ответить на тему  [ Сообщений: 3 ] 




Для Мосгорсуда, Роскомнадзора и рекламодателей:: mosgorsud-torrent[собачка]yandex.ru
cron