Торрент файл
скачать торрент магнет ссылка Добавлен: 31 янв 2013, 20:53
Размер: 9.04 ГБ
Сидеров: 58
Личеров: 16
Автор

СообщениеДобавлено: 31 янв 2013, 20:53 

Не в сети
Зам. Админа
Аватара пользователя
Дата регистрации:
02 дек 2010, 12:39
Спасибо: 12652 / 214
Сообщения: 28010

Тэд Джонс и Затерянный город в 3Д / Las aventuras de Tadeo Jones 3D
«По следам Индианы Джонса»[/center]
Страна: Испания
Студия: Paramaunt Pictures, Mediaset Espana, Intereconomia, El Toro Pictures, Lightbox Entertainment, Ikiru Films S.L., Telecinco Cinema, Telefonica Producciones
Жанр: мультфильм, приключения, семейный
Год выпуска: 2012
Продолжительность: 01:31:55

Перевод: русский дубляж [Лицензия, BD RUS] [Русский видеоряд]
Забугорная аудиодорожка: английская [BD RUS]
Русские субтитры: есть
Режиссер: Энрике Гато / Enrique Gato
Роли озвучивали: Оскар Барберан, Меритксель Ане, Фиона Глэскотт, Карлес Канут, Адам Джеймс, Мишель Хеннер, Мигель Анхель Дженнер, Энрикета Линарес, Мак МакДональд, Брюс Маккиннон
Роли дублировали: Пётр Иващенко, Станислав Дужников, Федор Добронравов, Даниил Эльдаров, Марина Александрова, Григорий Антипенко


Тэд — обычный чикагский строитель, страстно мечтающий о невероятных открытиях и опасных приключениях. Однажды его по ошибке принимают за известного археолога и отправляют в Перу на поиски сокровищ инков. Радости Тэда не было предела, но, похоже, она оказалась преждевременной…

Качество: BDRip 1080p
Контейнер: MKV
Формат 3D: Half OverUnder / Вертикальная анаморфная стереопара
Порядок ракурсов: левый ракурс первый
Поддержка автоматического запуска 3D на вашем TV (frame paking): да
Видео кодек: x264
Аудио кодек: AC3
Видео: AVC / [email protected] / 2 pass / 23,976 fps / 1920x1080p / 12,8 Mbps / 0.257
Аудио 1: AC3 / 5.1 ch / 640 kbps / Русский дубляж BD RUS
Аудио 2: AC3 / 5.1 ch / 640 kbps / Английский BD RUS
Субтитры: [softsub SRT]
Русские Full BD RUS
Дополнительно: Сохранены оригинальные чаптеры как на Blu-ray
Рип от: Killbrain

Раздача от:



Общее
Уникальный идентификатор: 222633210742698950966133323037253106027 (0xA77D98C28A3905099FFD94FE46F0F96B)
Полное имя: F:Скачка торрентТэд ДжонсLas.aventuras.de.Tadeo.Jones.3D.2012.BDRip1080p.halfOU(Killbrain).mkv
Формат: Matroska
Версия формата: Version 4 / Version 2
Размер файла: 9,04 Гбайт
Продолжительность: 1 ч. 31 м.
Общий поток: 14,1 Мбит/сек
Название фильма: Las aventuras de Tadeo Jones 3D (2012) by Killbrain
Дата кодирования: UTC 2010-02-22 21:41:31
Программа кодирования: mkvmerge v5.9.0 ('On The Loose') built on Dec9 2012 15:37:01
Библиотека кодирования: libebml v1.3.0 + libmatroska v1.4.0

Видео
Идентификатор: 1
Формат: AVC
Формат/Информация: Advanced Video Codec
Профиль формата: [email protected]
Параметр CABAC формата: Да
Параметр ReFrames формата: 4 кадра
Идентификатор кодека: V_MPEG4/ISO/AVC
Продолжительность: 1 ч. 31 м.
Битрейт: 12,8 Мбит/сек
Ширина: 1920 пикселей
Высота: 1080 пикселей
Соотношение сторон: 16:9
Режим частоты кадров: Постоянный
Частота кадров: 23,976 кадра/сек
Цветовое пространство: YUV
Субдискретизация насыщенности: 4:2:0
Битовая глубина: 8 бит
Тип развёртки: Прогрессивная
Бит/(Пиксели*Кадры): 0.257
Размер потока: 8,04 Гбайт (89%)
Заголовок: Las aventuras de Tadeo Jones 3D (2012)
Библиотека кодирования: x264 core 128 r2216 198a7ea
Настройки программы: cabac=1 / ref=4 / deblock=1:-3:-3 / analyse=0x3:0x113 / me=umh / subme=9 / psy=1 / psy_rd=1.00:0.40 / mixed_ref=1 / me_range=16 / chroma_me=1 / trellis=2 / 8x8dct=1 / cqm=0 / deadzone=21,11 / fast_pskip=1 / chroma_qp_offset=-4 / threads=3 / lookahead_threads=1 / sliced_threads=0 / nr=0 / decimate=0 / interlaced=0 / bluray_compat=0 / constrained_intra=0 / bframes=6 / b_pyramid=2 / b_adapt=2 / b_bias=0 / direct=3 / weightb=1 / open_gop=0 / weightp=2 / keyint=240 / keyint_min=23 / scenecut=40 / intra_refresh=0 / rc_lookahead=60 / rc=2pass / mbtree=0 / bitrate=12800 / ratetol=1.0 / qcomp=0.65 / qpmin=0 / qpmax=69 / qpstep=4 / cplxblur=20.0 / qblur=0.5 / vbv_maxrate=40000 / vbv_bufsize=40000 / nal_hrd=none / frame-packing=4 / ip_ratio=1.40 / pb_ratio=1.30 / aq=1:0.70
Язык: Spanish
Default: Да
Forced: Нет

Аудио #1
Идентификатор: 2
Формат: AC-3
Формат/Информация: Audio Coding 3
Расширение режима: CM (complete main)
Параметр Endianness формата: Big
Идентификатор кодека: A_AC3
Продолжительность: 1 ч. 31 м.
Вид битрейта: Постоянный
Битрейт: 640 Кбит/сек
Каналы: 6 каналов
Расположение каналов: Front: L C R, Side: L R, LFE
Частота: 48,0 КГц
Битовая глубина: 16 бит
Метод сжатия: С потерями
Размер потока: 421 Мбайт (5%)
Заголовок: AC3 / 5.1 ch / 640 kbps / Русский дубляж BD RUS
Язык: Russian
Default: Да
Forced: Нет

Аудио #2
Идентификатор: 3
Формат: AC-3
Формат/Информация: Audio Coding 3
Расширение режима: CM (complete main)
Параметр Endianness формата: Big
Идентификатор кодека: A_AC3
Продолжительность: 1 ч. 31 м.
Вид битрейта: Постоянный
Битрейт: 640 Кбит/сек
Каналы: 6 каналов
Расположение каналов: Front: L C R, Side: L R, LFE
Частота: 48,0 КГц
Битовая глубина: 16 бит
Метод сжатия: С потерями
Размер потока: 421 Мбайт (5%)
Заголовок: AC3 / 5.1 ch / 640 kbps / АнглийскийBD RUS
Язык: English
Default: Нет
Forced: Нет

Текст
Идентификатор: 4
Формат: UTF-8
Идентификатор кодека: S_TEXT/UTF8
Идентификатор кодека/Информация: UTF-8 Plain Text
Заголовок: Full BD RUS
Язык: Russian
Default: Нет
Forced: Нет

Меню
00:00:00.000: :Chapter 01
00:08:10.615: :Chapter 02
00:15:26.634: :Chapter 03
00:24:34.723: :Chapter 04
00:31:40.148: :Chapter 05
00:39:09.555: :Chapter 06
00:44:20.908: :Chapter 07
00:51:22.496: :Chapter 08
00:58:46.773: :Chapter 09
01:04:54.390: :Chapter 10
01:14:49.610: :Chapter 11
01:26:19.799: :Chapter 12
01:31:51.047: :Chapter 13





Вернуться к началу
 Профиль  
 
   Похожие торренты   Автор   Торрент   Размер 
В этой теме нет новых непрочитанных сообщений. Тэд-путешественник и тайна царя Мидаса / Tadeo Jones 2: El secreto del Rey Midas [Мультфильм, комедия, приключения, 2017] BDRip 1080p, Dub [iTunes]

salma3

1146 | 97

7.88 ГБ

В этой теме нет новых непрочитанных сообщений. Затерянный город Z / The Lost City of Z [Боевик, драма, приключения, 2016] Blu-Ray 1080p, Dub [Лицензия]

salma3

0 | 0

21.71 ГБ

В этой теме нет новых непрочитанных сообщений. Затерянный город Z / The Lost City of Z [Боевик, драма, приключения, 2016] BDRemux 1080p, Dub [Лицензия]

salma3

19 | 11

41.45 ГБ

В этой теме нет новых непрочитанных сообщений. Затерянный город Z / The Lost City of Z [Боевик, драма, биография, история, 2016] BDRip 1080p, Dub [iTunes]

salma3

2314 | 1494

11.31 ГБ

В этой теме нет новых непрочитанных сообщений. Тэд-путешественник и тайна царя Мидаса / Tadeo Jones 2: El secreto del Rey Midas [Мультфильм, комедия, приключения, 2017] НDRip, Dub [iTunes]

salma3

3452 | 353

1.37 ГБ

В этой теме нет новых непрочитанных сообщений. Бриджит Джонс 3 / Bridget Jones's Baby [мелодрама, комедия, 2016] BDRip 1080p, Dub+Sub [Лицензия]

salma3

96 | 25

7.74 ГБ

В этой теме нет новых непрочитанных сообщений. Индиана Джонс и Храм Судьбы / Indiana Jones and the Temple of Doom [Боевик, приключения, 1984] BDRip 720p, Mvo+Sub

salma3

8 | 1

12.1 ГБ


Начать новую тему Ответить на тему  [ 1 сообщение ] 




Для Мосгорсуда, Роскомнадзора и рекламодателей:: mosgorsud-torrent[собачка]yandex.ru
cron