Торрент файл
скачать торрент магнет ссылка Добавлен: 26 янв 2013, 12:59
Размер: 9.08 ГБ
Сидеров: 213
Личеров: 29
Автор

СообщениеДобавлено: 26 янв 2013, 12:59 

Не в сети
Зам. Админа
Аватара пользователя
Дата регистрации:
02 дек 2010, 12:39
Спасибо: 12652 / 214
Сообщения: 28010
Монстры на каникулах в 3Д / Hotel Transylvania 3D
«Будет страшно смешно»



Страна: США
Студия: Columbia Pictures, Sony Pictures Animation
Жанр:мультфильм, комедия, семейный
Год выпуска: 2012
Продолжительность: 01:31:31

Перевод: русский и украинский дубляжи [Лицензия, BD CEE]
Оригинальная аудиодорожка: английская
Русские субтитры: есть
Режиссер: Генндий Тартаковский / Genndy Tartakovsky
Роли озвучивали: Адам Сэндлер, Энди Сэмберг, Селена Гомес, Кевин Джеймс, Фрэн Дрешер, Стив Бушеми, Молли Шеннон, Дэвид Спейд, Си-Ло, Джон Ловиц
Роли дублировали: Сергей Бурунов, Александр Пушной, Полина Гагарина, Михаил Шац, Дмитрий Полонский


Граф Дракула для себя и своей любимой дочки построил хорошо укрытый от посторонних глаз отель, куда монстры со всего света приезжают отдохнуть от семейных забот, повседневной суеты и, конечно… людей. Но вездесущие американские туристы проникают и сюда.

Качество: BDRip 1080p
Контейнер: MKV
Формат 3D: Half OverUnder / Вертикальная анаморфная стереопара
Порядок ракурсов: левый ракурс первый
Поддержка автоматического запуска 3D на вашем TV (frame paking): да
Видео кодек: x264
Аудио кодек: AC3
Видео: AVC / [email protected] / 2 pass / 23,976 fps / 1920x1080p / 12,3 Mbps / 0.247
Аудио 1: AC3 / 5.1 ch / 640 kbps / Русский дубляж BD CEE
Аудио 2: AC3 / 5.1 ch / 640 kbps / Украинский дубляж BD CEE
Аудио 3: AC3 / 5.1 ch / 640 kbps / Английский original BD CEE
Субтитры: [softsub SRT]
Русские Full BD CEE
Английские Full BD CEE
Дополнительно: Сохранены оригинальные чаптеры как на Blu-ray
Рип от: HDMaNiAcS


Раздача от:








Проверено на оборудовании:
3D медиаплеер: iconBIT XDS73D
3D телевизор: 3D LED-Телевизор 40" Samsung UE40 ES6850M







x264 [info]: frame I:1076Avg QP:11.60size:336375
x264 [info]: frame P:37380 Avg QP:14.30size:118695
x264 [info]: frame B:93063 Avg QP:15.51size: 39056

Общее
Уникальный идентификатор: 193728035002600375463795481906653629177 (0x91BEA990F1015D6B8F0DBE4B19930AF9)
Полное имя: F:Скачка торрентHotel.Transylvania.3D.2012.BDRip1080p.halfOU(HDMaNiAcS).mkv
Формат: Matroska
Версия формата: Version 4 / Version 2
Размер файла: 9,08 Гбайт
Продолжительность: 1 ч. 31 м.
Общий поток: 14,2 Мбит/сек
Название фильма: Hotel Transylvania 3D (2012) by HDMaNiAcS
Дата кодирования: UTC 2010-02-22 21:41:31
Программа кодирования: mkvmerge v5.9.0 ('On The Loose') built on Dec9 2012 15:37:01
Библиотека кодирования: libebml v1.3.0 + libmatroska v1.4.0

Видео
Идентификатор: 1
Формат: AVC
Формат/Информация: Advanced Video Codec
Профиль формата: [email protected]
Параметр CABAC формата: Да
Параметр ReFrames формата: 4 кадра
Идентификатор кодека: V_MPEG4/ISO/AVC
Продолжительность: 1 ч. 31 м.
Битрейт: 12,3 Мбит/сек
Ширина: 1920 пикселей
Высота: 1080 пикселей
Соотношение сторон: 16:9
Режим частоты кадров: Постоянный
Частота кадров: 23,976 кадра/сек
Цветовое пространство: YUV
Субдискретизация насыщенности: 4:2:0
Битовая глубина: 8 бит
Тип развёртки: Прогрессивная
Бит/(Пиксели*Кадры): 0.247
Размер потока: 7,68 Гбайт (84%)
Заголовок: Hotel Transylvania 3D (2012)
Библиотека кодирования: x264 core 129 r2230 1cffe9f
Настройки программы: cabac=1 / ref=4 / deblock=1:-2:-2 / analyse=0x3:0x113 / me=tesa / subme=11 / psy=1 / psy_rd=0.90:0.00 / mixed_ref=1 / me_range=48 / chroma_me=1 / trellis=2 / 8x8dct=1 / cqm=0 / deadzone=21,11 / fast_pskip=0 / chroma_qp_offset=-2 / threads=12 / lookahead_threads=2 / sliced_threads=0 / nr=0 / decimate=0 / interlaced=0 / bluray_compat=0 / constrained_intra=0 / bframes=8 / b_pyramid=2 / b_adapt=2 / b_bias=0 / direct=3 / weightb=1 / open_gop=0 / weightp=2 / keyint=250 / keyint_min=23 / scenecut=40 / intra_refresh=0 / rc=2pass / mbtree=0 / bitrate=12300 / ratetol=1.0 / qcomp=0.60 / qpmin=0 / qpmax=69 / qpstep=4 / cplxblur=20.0 / qblur=0.5 / frame-packing=4 / ip_ratio=1.40 / pb_ratio=1.30 / aq=1:0.70
Язык: English
Default: Да
Forced: Нет

Аудио #1
Идентификатор: 2
Формат: AC-3
Формат/Информация: Audio Coding 3
Расширение режима: CM (complete main)
Параметр Endianness формата: Big
Идентификатор кодека: A_AC3
Продолжительность: 1 ч. 31 м.
Вид битрейта: Постоянный
Битрейт: 640 Кбит/сек
Каналы: 6 каналов
Расположение каналов: Front: L C R, Side: L R, LFE
Частота: 48,0 КГц
Битовая глубина: 16 бит
Метод сжатия: С потерями
Размер потока: 419 Мбайт (5%)
Заголовок: AC3 / 5.1 ch / 640 kbps / Русский дубляж BD CEE
Язык: Russian
Default: Да
Forced: Нет

Аудио #2
Идентификатор: 3
Формат: AC-3
Формат/Информация: Audio Coding 3
Расширение режима: CM (complete main)
Параметр Endianness формата: Big
Идентификатор кодека: A_AC3
Продолжительность: 1 ч. 31 м.
Вид битрейта: Постоянный
Битрейт: 640 Кбит/сек
Каналы: 6 каналов
Расположение каналов: Front: L C R, Side: L R, LFE
Частота: 48,0 КГц
Битовая глубина: 16 бит
Метод сжатия: С потерями
Размер потока: 419 Мбайт (5%)
Заголовок: AC3 / 5.1 ch / 640 kbps / Украинский дубляж BD CEE
Язык: Ukrainian
Default: Нет
Forced: Нет

Аудио #3
Идентификатор: 4
Формат: AC-3
Формат/Информация: Audio Coding 3
Расширение режима: CM (complete main)
Параметр Endianness формата: Big
Идентификатор кодека: A_AC3
Продолжительность: 1 ч. 31 м.
Вид битрейта: Постоянный
Битрейт: 640 Кбит/сек
Каналы: 6 каналов
Расположение каналов: Front: L C R, Side: L R, LFE
Частота: 48,0 КГц
Битовая глубина: 16 бит
Метод сжатия: С потерями
Размер потока: 419 Мбайт (5%)
Заголовок: AC3 / 5.1 ch / 640 kbps / Английский original BD CEE
Язык: English
Default: Нет
Forced: Нет

Текст #1
Идентификатор: 5
Формат: UTF-8
Идентификатор кодека: S_TEXT/UTF8
Идентификатор кодека/Информация: UTF-8 Plain Text
Заголовок: Full BD
Язык: Russian
Default: Нет
Forced: Нет

Текст #2
Идентификатор: 6
Формат: UTF-8
Идентификатор кодека: S_TEXT/UTF8
Идентификатор кодека/Информация: UTF-8 Plain Text
Заголовок: Full BD
Язык: English
Default: Нет
Forced: Нет

Меню
00:00:00.000: en:00:00:00.000
00:04:49.372: en:00:04:49.372
00:10:23.790: en:00:10:23.790
00:14:19.275: en:00:14:19.275
00:19:25.498: en:00:19:25.498
00:25:11.218: en:00:25:11.218
00:29:49.413: en:00:29:49.413
00:35:50.815: en:00:35:50.815
00:41:11.636: en:00:41:11.636
00:46:29.537: en:00:46:29.537
00:53:50.227: en:00:53:50.227
00:57:44.795: en:00:57:44.795
01:04:15.268: en:01:04:15.268
01:08:48.499: en:01:08:48.499
01:15:20.599: en:01:15:20.599
01:18:50.643: en:01:18:50.643








Вернуться к началу
 Профиль  
 
   Похожие торренты   Автор   Торрент   Размер 
В этой теме нет новых непрочитанных сообщений. Монстры на каникулах 2 / Hotel Transylvania 2 (Генндий Тартаковский) [мультфильм, фэнтези, комедия, семейный, 2015] BDRip 1080p, Dub+Sub [Лицензия]

Dracon

426 | 77

5.99 ГБ

В этой теме нет новых непрочитанных сообщений. Монстры на каникулах 2 / Hotel Transylvania 2 [мультфильм, фэнтези, комедия, семейный, 2015] BDRip-AVC, Dub+Sub [Лицензия]

Dracon

380 | 49

1.46 ГБ

В этой теме нет новых непрочитанных сообщений. Монстры на каникулах 2 / Hotel Transylvania 2 (Генндий Тартаковский) [мультфильм, фэнтези, комедия, семейный, 2015] BDRip, Dub [Лицензия]

Dracon

497 | 12

1.46 ГБ

В этой теме нет новых непрочитанных сообщений. Монстры на каникулах 2 / Hotel Transylvania 2 (Генндий Тартаковский) [мультфильм, фэнтези, комедия, семейный, 2015] BDRip 720p, Dub+Sub [Лицензия]

Dracon

345 | 56

3.57 ГБ

В этой теме нет новых непрочитанных сообщений. Монстры на каникулах 2 / Hotel Transylvania 2 (Генндий Тартаковский) [мультфильм, фэнтези, комедия, семейный, 2015] WED-DLRip-AVC, Dub [Лицензия / iTunes]

Dracon

607 | 221

1.58 ГБ

В этой теме нет новых непрочитанных сообщений. Монстры на каникулах 2 / Hotel Transylvania 2 (Генндий Тартаковский) [мультфильм, фэнтези, комедия, семейный, 2015] WEB-DL 1080p, Dub [iTunes]

Dracon

2279 | 164

3.69 ГБ

В этой теме нет новых непрочитанных сообщений. Монстры на каникулах 2 / Hotel Transylvania 2 (Генндий Тартаковский) [мультфильм, фэнтези, комедия, семейный, 2015] WEB-DL 720p, Dub [iTunes]

Dracon

1084 | 85

2.98 ГБ


Начать новую тему Ответить на тему  [ 1 сообщение ] 




Для Мосгорсуда, Роскомнадзора и рекламодателей:: mosgorsud-torrent[собачка]yandex.ru
cron