Торрент файл
скачать торрент магнет ссылка Добавлен: 20 янв 2013, 20:04
Размер: 5.83 ГБ
Сидеров: 164
Личеров: 27
Статус: (Dracon)
Автор

СообщениеДобавлено: 20 янв 2013, 20:04 

Не в сети
Зам. Админа
Аватара пользователя
Дата регистрации:
02 дек 2010, 12:39
Спасибо: 12656 / 214
Сообщения: 28010
Нико 2 в 3Д / Niko 2: Lentajaveljekset 3D
«Маленький братишка - большие хлопоты»



Страна:Финляндия, Германия, Дания, Ирландия
Студия: Anima Vitae, Cinemaker Oy, Ulysses Films, Tidal Films, A. Film
Жанр:мультфильм, комедия, приключения, семейный
Год выпуска: 2012
Продолжительность: 01:16:05

Перевод: Профессиональный (дублированный) [Лицензия] + английская дорога
Русские субтитры: да
Режиссёр: Кари Юуусонен/Kari Juusonen, Юрген Лердам/Jorgen Lerdam
Роли озвучивали: Эрик Карлсон, Кари Хиеталахти, Юха Вейонен, Кари Кетонен, Юкка Расила, Яакко Саарилуома, Элина Книхтиля, Рику Ниеминен, Пертти Койвула, Ристо Каскилахти, Катариина Кайтуэ
Роли дублировали: Дмитрий Курта и др.


Новые приключения веселого и отважного олененка Нико, мечтающего, как и его легендарный отец, стать летающим оленем в упряжке Санта-Клауса. Все начинается накануне Рождества. Вместе со своими друзьями, белкой Джулиусом, лаской Вилмой и сводным братишкой Джонни Нико с нетерпением ждет Санту. Но тот снова попадает в невероятную историю. Неужели дети останутся без подарков?

Тип релиза: BDRip 1080p
Контейнер: MKV
Видео кодек: x264
Аудио кодек: AC3
Формат 3D: Half OverUnder / Вертикальная анаморфная стереопара
Поддержка автоматического запуска 3D на вашем TV (frame paking): да
Порядок ракурсов: левый ракурс первый
Видео: AVC / [email protected] / 2 pass / 23,976 fps / 1920x1080p / / 9,7 Mbps / 0.195
Аудио 1: AC3 / 5.1 ch / 640 kbps / Русский дубляж BD RUS
Аудио 2: AC3 / 5.1 ch / 640 kbps / Английский original BD RUS
Субтитры: русские полные с BD RUS (softsub SRT)
Дополнительно: Сохранены оригинальные чаптеры как на Blu-ray
Рип от: Killbrain


Раздача от:








Общее
Уникальный идентификатор: 176582681017014220303149361105193366703 (0x84D896597EB5B6F4832328BB292B74AF)
Полное имя: F:Скачка торрентNiko2.Lentäjäveljekset.3D.2012.BDRip1080p.halfOU(Killbrain).mkv
Формат: Matroska
Версия формата: Version 4 / Version 2
Размер файла: 5,83 Гбайт
Продолжительность: 1 ч. 16 м.
Общий поток: 11,0 Мбит/сек
Название фильма: Niko 2: Lentäjäveljekset 3D (2012) by Killbrain
Дата кодирования: UTC 2010-02-22 21:41:31
Программа кодирования: mkvmerge v5.9.0 ('On The Loose') built on Dec9 2012 15:37:01
Библиотека кодирования: libebml v1.3.0 + libmatroska v1.4.0

Видео
Идентификатор: 1
Формат: AVC
Формат/Информация: Advanced Video Codec
Профиль формата: [email protected]
Параметр CABAC формата: Да
Параметр ReFrames формата: 4 кадра
Идентификатор кодека: V_MPEG4/ISO/AVC
Битрейт: 9700 Кбит/сек
Ширина: 1920 пикселей
Высота: 1080 пикселей
Соотношение сторон: 16:9
Режим частоты кадров: Переменный
Частота кадров в оригинале: 23,976 кадра/сек
Цветовое пространство: YUV
Субдискретизация насыщенности: 4:2:0
Битовая глубина: 8 бит
Тип развёртки: Прогрессивная
Бит/(Пиксели*Кадры): 0.195
Заголовок: Niko 2: Lentäjäveljekset 3D (2012)
Библиотека кодирования: x264 core 128 r2216 198a7ea
Настройки программы: cabac=1 / ref=4 / deblock=1:-3:-3 / analyse=0x3:0x113 / me=umh / subme=9 / psy=1 / psy_rd=1.00:0.40 / mixed_ref=1 / me_range=16 / chroma_me=1 / trellis=2 / 8x8dct=1 / cqm=0 / deadzone=21,11 / fast_pskip=1 / chroma_qp_offset=-4 / threads=3 / lookahead_threads=1 / sliced_threads=0 / nr=0 / decimate=0 / interlaced=0 / bluray_compat=0 / constrained_intra=0 / bframes=6 / b_pyramid=2 / b_adapt=2 / b_bias=0 / direct=3 / weightb=1 / open_gop=0 / weightp=2 / keyint=240 / keyint_min=23 / scenecut=40 / intra_refresh=0 / rc_lookahead=60 / rc=2pass / mbtree=0 / bitrate=9700 / ratetol=1.0 / qcomp=0.65 / qpmin=0 / qpmax=69 / qpstep=4 / cplxblur=20.0 / qblur=0.5 / vbv_maxrate=40000 / vbv_bufsize=40000 / nal_hrd=none / frame-packing=4 / ip_ratio=1.40 / pb_ratio=1.30 / aq=1:0.70
Язык: English
Default: Да
Forced: Нет

Аудио #1
Идентификатор: 2
Формат: AC-3
Формат/Информация: Audio Coding 3
Расширение режима: CM (complete main)
Параметр Endianness формата: Big
Идентификатор кодека: A_AC3
Продолжительность: 1 ч. 16 м.
Вид битрейта: Постоянный
Битрейт: 640 Кбит/сек
Каналы: 6 каналов
Расположение каналов: Front: L C R, Side: L R, LFE
Частота: 48,0 КГц
Битовая глубина: 16 бит
Метод сжатия: С потерями
Размер потока: 348 Мбайт (6%)
Заголовок: AC3 / 5.1 ch / 640 kbps / Русский дубляж BD RUS
Язык: Russian
Default: Да
Forced: Нет

Аудио #2
Идентификатор: 3
Формат: AC-3
Формат/Информация: Audio Coding 3
Расширение режима: CM (complete main)
Параметр Endianness формата: Big
Идентификатор кодека: A_AC3
Продолжительность: 1 ч. 16 м.
Вид битрейта: Постоянный
Битрейт: 640 Кбит/сек
Каналы: 6 каналов
Расположение каналов: Front: L C R, Side: L R, LFE
Частота: 48,0 КГц
Битовая глубина: 16 бит
Метод сжатия: С потерями
Размер потока: 348 Мбайт (6%)
Заголовок: AC3 / 5.1 ch / 640 kbps / Английский original BD RUS
Язык: English
Default: Нет
Forced: Нет

Текст
Идентификатор: 4
Формат: UTF-8
Идентификатор кодека: S_TEXT/UTF8
Идентификатор кодека/Информация: UTF-8 Plain Text
Заголовок: FULL BD RUS
Язык: Russian
Default: Нет
Forced: Нет

Меню
00:00:00.000: :Chapter 01
00:05:57.315: :Chapter 02
00:16:19.269: :Chapter 03
00:23:55.142: :Chapter 04
00:31:49.866: :Chapter 05
00:40:38.310: :Chapter 06
00:47:13.747: :Chapter 07
00:54:04.366: :Chapter 08
00:58:33.134: :Chapter 09
01:05:04.150: :Chapter 10
01:08:02.161: :Chapter 11
01:10:53.374: :Chapter 12



Вернуться к началу
 Профиль  
 
   Похожие торренты   Автор   Торрент   Размер 
В этой теме нет новых непрочитанных сообщений. В поисках Дори / Finding Dory [мультфильм, комедия, приключения, семейный, 2016] BDRip 1080p, Dub [3D-Video] [Лицензия]

salma3

155 | 85

10.39 ГБ

В этой теме нет новых непрочитанных сообщений. Аисты / Storks ( Мультфильм, Фэнтези, Комедия, Приключения, Семейный, 2016) BDRip 1080p от Ash61 | 3D-Video | halfOU | iTunes

marya111

129 | 91

9.19 ГБ

В этой теме нет новых непрочитанных сообщений. Хороший динозавр / The Good Dinosaur [Мультфильм, фэнтези, комедия, приключения, семейный, 2015] BDRip 1080p, dub [3D-Video | чистый звук]

Dracon

39 | 9

14.07 ГБ

В этой теме нет новых непрочитанных сообщений. Волки и овцы: бе-е-е-зумное превращение (Мультфильм, Семейный, Комедия, Приключения, 2016) BDRip 1080p от Ash61 | 3D-Video | halfOU | iTunes

marya111

91 | 32

8.87 ГБ

В этой теме нет новых непрочитанных сообщений. Ледниковый период: Столкновение неизбежно ( Мультфильм, Фантастика, Комедия, Приключения, Семейный, 2016) BDRip 1080p от Ash61 | 3D-Video | halfOU | iTunes

marya111

155 | 10

8.29 ГБ

В этой теме нет новых непрочитанных сообщений. Миньоны / Minions (Кайл Балда, Пьер Соффин) [мультфильм, комедия, семейный, 2015] BDRip 1080p, Dub+Sub [3D-Video | Лицензия]

Dracon

342 | 36

11.29 ГБ

В этой теме нет новых непрочитанных сообщений. Ледниковый период: Столкновение неизбежно / Ice Age: Collision Course (Мультфильм, полнометражный, комедия, приключения, семейный, 2016) BDRemux 1080p от ExKinoRay | 3D-Video | Лицензия

marya111

5 | 1

31.37 ГБ


Начать новую тему Ответить на тему  [ 1 сообщение ] 




Для Мосгорсуда, Роскомнадзора и рекламодателей:: mosgorsud-torrent[собачка]yandex.ru
cron