Торрент файл
скачать торрент магнет ссылка Добавлен: 18 янв 2013, 19:53
Размер: 7.35 ГБ
Сидеров: 80
Личеров: 13
Автор

СообщениеДобавлено: 18 янв 2013, 19:53 

Не в сети
Зам. Админа
Аватара пользователя
Дата регистрации:
02 дек 2010, 12:39
Спасибо: 12656 / 214
Сообщения: 28010
Тэд Джонс и Затерянный город 3Д
Las aventuras de Tadeo Jones 3D
«По следам Индианы Джонса»

Страна: Испания
Жанр: приключения, семейный
Продолжительность: 01:32:14
Год выпуска: 2012
Перевод: Профессиональный (дублированный)
Русские субтитры: нет

Режиссёр: Энрике Гато / Enrique Gato

Роли озвучивали: Оскар Барберан,мМеритксель Ане, Фиона Глэскотт, Карлес Канут, Адам Джеймс, Мишель Хеннер, Мигель Анхель Дженнер, Энрикета Линарес, Мак МакДональд, Брюс Маккиннон.

Роли дублировали: Пётр Иващенко, Станислав Дужников, Федор Добронравов, Даниил Эльдаров,Марина Александрова.

Описание: Тэд — обычный чикагский строитель, страстно мечтающий о невероятных открытиях и опасных приключениях. Однажды его по ошибке принимают за известного археолога и отправляют в Перу на поиски сокровищ инков. Радости Тэда не было предела, но, похоже, она оказалась преждевременной…

Сэмпл

Формат 3D: Anamorph OverUnder / Вертикальная анаморфная стереопара
Качество: BDRip 1080р
Формат: MKV
Видео: h.264 / 23,976 fps / 1920х1080p / 10,1 Mbps / Bits/Pixel: 0.203
Аудио 1: Русский / AC3 / 48 KHz / 5.1 ch / 448 Kbps (Дубляж)
Аудио 2: Испанский / AC3 / 48 KHz / 5.1 ch / 640 Kbps
Субтитры: отсутствуют
Код:
General
Unique ID: 220838649084963952814558955670719456545 (0xA623FA09FFCB9B6BB5F7C783BC646521)
Complete name: D:Docum and SettingsAdminМои документыDownloadsLas aventuras de Tadeo Jones(3D )2012.BDRip.1080p.By _Flash.mkv
Format: Matroska
Format version: Version 4 / Version 2
File size: 7.35 GiB
Duration: 1h 32mn
Overall bit rate: 11.4 Mbps
Movie name: Las aventuras de Tadeo Jones 3D (2012) 3D-RuGroup ([email protected])
Encoded date: UTC 2010-02-22 21:41:31
Writing application: mkvmerge v5.9.0 ('On The Loose') built on Dec9 2012 15:37:01
Writing library: libebml v1.3.0 + libmatroska v1.4.0

Video
ID: 1
Format: AVC
Format/Info: Advanced Video Codec
Format profile: [email protected]
Format settings, CABAC: Yes
Format settings, ReFrames: 4 frames
Codec ID: V_MPEG4/ISO/AVC
Duration: 1h 32mn
Bit rate: 10.1 Mbps
Width: 1 920 pixels
Height: 1 080 pixels
Display aspect ratio: 16:9
Frame rate: 23.976 fps
Color space: YUV
Chroma subsampling: 4:2:0
Bit depth: 8 bits
Scan type: Progressive
Bits/(Pixel*Frame): 0.203
Stream size: 6.50 GiB (88%)
Title: BDrip by [email protected]
Writing library: x264 core 116 r2074 2641b9e
Encoding settings: cabac=1 / ref=4 / deblock=1:-3:-3 / analyse=0x3:0x133 / me=umh / subme=9 / psy=1 / psy_rd=1.00:0.05 / mixed_ref=1 / me_range=16 / chroma_me=1 / trellis=2 / 8x8dct=1 / cqm=0 / deadzone=21,11 / fast_pskip=1 / chroma_qp_offset=-3 / threads=12 / sliced_threads=0 / nr=0 / decimate=1 / interlaced=0 / bluray_compat=0 / constrained_intra=0 / bframes=6 / b_pyramid=2 / b_adapt=2 / b_bias=0 / direct=3 / weightb=1 / open_gop=0 / weightp=2 / keyint=250 / keyint_min=23 / scenecut=40 / intra_refresh=0 / rc_lookahead=60 / rc=crf / mbtree=1 / crf=17.0 / qcomp=0.70 / qpmin=10 / qpmax=51 / qpstep=4 / vbv_maxrate=40000 / vbv_bufsize=30000 / crf_max=0.0 / nal_hrd=none / frame-packing=4 / ip_ratio=1.40 / aq=1:0.70
Language: Spanish
Default: Yes
Forced: No

Audio #1
ID: 2
Format: AC-3
Format/Info: Audio Coding 3
Mode extension: CM (complete main)
Format settings, Endianness: Big
Codec ID: A_AC3
Duration: 1h 32mn
Bit rate mode: Constant
Bit rate: 448 Kbps
Channel(s): 6 channels
Channel positions: Front: L C R, Side: L R, LFE
Sampling rate: 48.0 KHz
Bit depth: 16 bits
Compression mode: Lossy
Stream size: 296 MiB (4%)
Title: AC3 / 5/1 ch / 640 kbps / Дубляж
Language: Russian
Default: Yes
Forced: No

Audio #2
ID: 3
Format: AC-3
Format/Info: Audio Coding 3
Mode extension: CM (complete main)
Format settings, Endianness: Big
Codec ID: A_AC3
Duration: 1h 32mn
Bit rate mode: Constant
Bit rate: 640 Kbps
Channel(s): 6 channels
Channel positions: Front: L C R, Side: L R, LFE
Sampling rate: 48.0 KHz
Bit depth: 16 bits
Compression mode: Lossy
Stream size: 422 MiB (6%)
Title: AC3 / 5/1 ch / 640 kbps /original
Language: Spanish
Default: No
Forced: No

Menu
00:00:00.000: en:00:00:00.000
00:08:03.733: en:00:08:03.733
00:15:28.719: en:00:15:28.719
00:21:33.667: en:00:21:33.667
00:30:31.997: en:00:30:31.997
00:36:10.335: en:00:36:10.335
00:44:22.493: en:00:44:22.493
00:53:36.380: en:00:53:36.380
01:04:59.229: en:01:04:59.229
01:09:29.665: en:01:09:29.665
01:15:24.270: en:01:15:24.270
01:23:21.121: en:01:23:21.121






Вернуться к началу
 Профиль  
 
   Похожие торренты   Автор   Торрент   Размер 
В этой теме нет новых непрочитанных сообщений. Тэд-путешественник и тайна царя Мидаса / Tadeo Jones 2: El secreto del Rey Midas [Мультфильм, комедия, приключения, 2017] BDRip 1080p, Dub [iTunes]

salma3

1146 | 97

7.88 ГБ

В этой теме нет новых непрочитанных сообщений. Тэд-путешественник и тайна царя Мидаса / Tadeo Jones 2: El secreto del Rey Midas [Мультфильм, комедия, приключения, 2017] НDRip, Dub [iTunes]

salma3

3452 | 353

1.37 ГБ

В этой теме нет новых непрочитанных сообщений. Индиана Джонс и Храм Судьбы / Indiana Jones and the Temple of Doom [Боевик, приключения, 1984] BDRip 720p, Mvo+Sub

salma3

8 | 1

12.1 ГБ

В этой теме нет новых непрочитанных сообщений. Затерянный город Z / The Lost City of Z [Боевик, драма, приключения, 2016] Blu-Ray 1080p, Dub [Лицензия]

salma3

0 | 0

21.71 ГБ

В этой теме нет новых непрочитанных сообщений. Затерянный город Z / The Lost City of Z [Боевик, драма, приключения, 2016] BDRemux 1080p, Dub [Лицензия]

salma3

19 | 11

41.45 ГБ

В этой теме нет новых непрочитанных сообщений. Затерянный город Z / The Lost City of Z [Боевик, драма, биография, история, 2016] BDRip-AVC, Dub [Лицензия]

salma3

278 | 48

1.46 ГБ

В этой теме нет новых непрочитанных сообщений. Затерянный город Z / The Lost City of Z [Боевик, драма, биография, история, 2016] BDRip 720p, Dub [Лицензия]

salma3

0 | 0

8.29 ГБ


Начать новую тему Ответить на тему  [ 1 сообщение ] 




Для Мосгорсуда, Роскомнадзора и рекламодателей:: mosgorsud-torrent[собачка]yandex.ru
cron