Торрент файл
скачать торрент магнет ссылка Добавлен: 13 янв 2013, 02:12
Размер: 3.83 ГБ
Сидеров: 1
Личеров: 1
Статус: (drink)
Автор

СообщениеДобавлено: 13 янв 2013, 02:12 

Не в сети
Супермодератор
Аватара пользователя
Дата регистрации:
11 апр 2010, 18:10
Спасибо: 5996 / 7
Сообщения: 56684

Битва за планету Терра в 3Д / Battle for Terra 3DГод выпуска: 2007
Страна: США
Студия: MeniThings LLC, Snoot Entertainment
Жанр: мультфильм, фантастика, боевик, приключения, военный
Продолжительность: 01:19:09
Перевод: Профессиональный (дублированный) + оригинальная дорога
Русские субтитры: нет
Режиссер: Аристоменис Тсирбас / Aristomenis Tsirbas
Роли озвучивали: Чед Аллен, Розанна Аркетт, Билл Бирч, Брук Блум, Том Коннолли, Брайан Кокс, Дэвид Кросс, Беверли Д`Анджело, Джим Девоти, Крис Эванс, Джеймс Гарнер, Дэнни Гловер, Марк Хэмилл, Алек Холден, Масам Холден, Ванесса Йоханссон, Брайан Джонсон, Дэвид Крамхолц, Фил ЛаМарр, Джастин Лонг, Уорм Миллер, Лорейн Ньюмен, Аманда Пит, Рон Перлман, Деннис Куэйд, Зои Сайдел, Дэнни Трехо, Люк Уилсон, Ивэн Рэйчел Вуд
Роли дублировали: Сергей Степанченко, Вячеслав Гришечкин, Александр Клюквин, Александр Комлев, Евгений Стычкин
Описание:
Когда на планете Земля пересохли все реки, исчезли леса, а воздух превратился в пыль, люди исколесили Галактику, чтобы найти себе новый дом. Прекрасная планета Терра стала надеждой людей на спасение. Хитроумное устройство землян Терраформер должен превратить Терру в рай для людей и кошмар для коренных жителей. Катастрофа для террианцев неизбежна, они обречены. Счет идет на дни и часы. И все бы шло по плану, если не одна случайность. Девочка с Терры Молу подбирает раненого пилота — землянина. Они становятся лучшими друзьями и вместе находят хитрый способ спасти Терру — последнюю живую планету Галактики. Они не подозревают, что сразу окажутся в центре бурных, опасных, веселых и удивительных событий…

Качество: BDRip-AVC, 1080p
Контейнер: MKV
Формат 3D: Half OverUnder / Вертикальная анаморфная стереопара
Порядок ракурсов: левый ракурс первый
Видео кодек: x264
Аудио кодек: AC3
Видео: AVC / [email protected] / 23,976 fps / 1920х1080p / 5696 Kbps / 0.115
Аудио 1: AC3 / 5.1 ch / 448 kbps / 16 bit / Русский дубляж
Аудио 2: AC3 / 5.1 ch / 640 kbps / 16 bit / Original
Субтитры: отсутствуют
Дополнительно: Сохранены оригинальные чаптеры как на Blu-ray.
Рип от: Killbrain
----------------------------------------------------------------------------------------
Проверено на оборудовании:
3D медиаплеер: iconBIT XDS73D
3D телевизор: 3D LED-Телевизор 40" Samsung UE40 ES6850M
----------------------------------------------------------------------------------------
Знаете ли вы, что...
С латыни «Terra» переводится как «Земля».
Технические детали съёмки:
Формат изображения: 2.35 : 1
Изображение: цветное
Log x264:
x264 [info]: frame I:1259 Avg QP:12.06 size:167882
x264 [info]: frame P:29067 Avg QP:18.11 size: 54060
x264 [info]: frame B:83541 Avg QP:19.49 size: 20095
MediaInfo:
Общее
Уникальный идентификатор : 232573498757524909672496287829947449676 (0xAEF806CC2A1A4690857F3267DAFE014C)
Полное имя : F:\Скачка торрент\Battle.for.Terra.3D.BDRip1080p.HalfOverUnder.(Killbrain).mkv
Формат : Matroska
Версия формата : Version 2
Размер файла : 3,83 Гбайт
Продолжительность : 1 ч. 19 м.
Общий поток : 6921 Кбит/сек
Название фильма : Battle for Terra 3D (2007) by Killbrain
Дата кодирования : UTC 2012-10-01 19:24:08
Программа кодирования : mkvmerge v5.8.0 ('No Sleep / Pillow') built on Sep 2 2012 15:37:04
Библиотека кодирования : libebml v1.2.3 + libmatroska v1.3.0
Видео
Идентификатор : 1
Формат : AVC
Формат/Информация : Advanced Video Codec
Профиль формата : [email protected]
Параметр CABAC формата : Да
Параметр ReFrames формата : 4 кадра
Идентификатор кодека : V_MPEG4/ISO/AVC
Продолжительность : 1 ч. 19 м.
Битрейт : 5696 Кбит/сек
Ширина : 1920 пикселей
Высота : 1080 пикселей
Соотношение сторон : 16:9
Режим частоты кадров : Постоянный
Частота кадров : 23,976 кадра/сек
Цветовое пространство : YUV
Субдискретизация насыщенности : 4:2:0
Битовая глубина : 8 бит
Тип развёртки : Прогрессивная
Бит/(Пиксели*Кадры) : 0.115
Размер потока : 3,15 Гбайт (82%)
Заголовок : Battle for Terra 3D (2007)
Библиотека кодирования : x264 core 128 r2216 198a7ea
Настройки программы : cabac=1 / ref=4 / deblock=1:-3:-3 / analyse=0x3:0x113 / me=umh / subme=9 / psy=1 / psy_rd=1.00:0.15 / mixed_ref=1 / me_range=24 / chroma_me=1 / trellis=2 / 8x8dct=1 / cqm=0 / deadzone=21,11 / fast_pskip=1 / chroma_qp_offset=-3 / threads=3 / lookahead_threads=1 / sliced_threads=0 / slices=4 / nr=0 / decimate=1 / interlaced=0 / bluray_compat=0 / constrained_intra=0 / bframes=6 / b_pyramid=2 / b_adapt=2 / b_bias=0 / direct=3 / weightb=1 / open_gop=0 / weightp=2 / keyint=240 / keyint_min=23 / scenecut=40 / intra_refresh=0 / rc_lookahead=60 / rc=crf / mbtree=1 / crf=17.5 / qcomp=0.70 / qpmin=0 / qpmax=69 / qpstep=4 / vbv_maxrate=50000 / vbv_bufsize=50000 / crf_max=0.0 / nal_hrd=none / frame-packing=4 / ip_ratio=1.40 / aq=1:0.90
Язык : English
Default : Да
Forced : Нет
Аудио #1
Идентификатор : 2
Формат : AC-3
Формат/Информация : Audio Coding 3
Расширение режима : CM (complete main)
Параметр Endianness формата : Big
Идентификатор кодека : A_AC3
Продолжительность : 1 ч. 19 м.
Вид битрейта : Постоянный
Битрейт : 448 Кбит/сек
Каналы : 6 каналов
Расположение каналов : Front: L C R, Side: L R, LFE
Частота : 48,0 КГц
Битовая глубина : 16 бит
Метод сжатия : С потерями
Размер потока : 254 Мбайт (6%)
Заголовок : AC3 / 5.1 ch / 448 kbps / 16 bit / Русский дубляж
Язык : Russian
Default : Да
Forced : Нет
Аудио #2
Идентификатор : 3
Формат : AC-3
Формат/Информация : Audio Coding 3
Расширение режима : CM (complete main)
Параметр Endianness формата : Big
Идентификатор кодека : A_AC3
Продолжительность : 1 ч. 19 м.
Вид битрейта : Постоянный
Битрейт : 640 Кбит/сек
Каналы : 6 каналов
Расположение каналов : Front: L C R, Side: L R, LFE
Частота : 48,0 КГц
Битовая глубина : 16 бит
Метод сжатия : С потерями
Размер потока : 362 Мбайт (9%)
Заголовок : AC3 / 5.1 ch / 640 kbps / 16 bit / Original
Язык : English
Default : Нет
Forced : Нет
Меню
00:00:00.000 : :Chapter 01
00:09:33.072 : :Chapter 02
00:13:14.752 : :Chapter 03
00:16:26.652 : :Chapter 04
00:18:03.665 : :Chapter 05
00:24:23.628 : :Chapter 06
00:31:02.068 : :Chapter 07
00:38:41.819 : :Chapter 08
00:46:45.928 : :Chapter 09
00:53:20.989 : :Chapter 10
01:00:13.735 : :Chapter 11
01:14:02.980 : :Chapter 12
01:19:08.201 : :Chapter 13
Скриншоты:
Чёрно-белые скриншоты в анаглифе для оценки качества 3Д:



Вернуться к началу
 Профиль Отправить личное сообщение  
 
   Похожие торренты   Автор   Торрент   Размер 
В этой теме нет новых непрочитанных сообщений. Битва в Сиэтле / Battle in Seattle [Боевик, драма, 2007] BDRip 720р, Avo+Dvo+Sub

salma3

93 | 24

5.06 ГБ

В этой теме нет новых непрочитанных сообщений. Воины Терра / Warriors of Terra [ужасы, фантастика, 2006] DVDRip,Dvo

salma3

77 | 3

1.33 ГБ

В этой теме нет новых непрочитанных сообщений. Инопланетное вторжение: Битва за Лос-Анджелес / Battle: Los Angeles [Фантастика, боевик, 2011] BDRip-AVC, Dub

salma3

21 | 10

3.27 ГБ

В этой теме нет новых непрочитанных сообщений. Битва в Сиэтле / Battle in Seattle [драма, 2007] BDRip-AVC, Avo

salma3

0 | 0

1.99 ГБ

В этой теме нет новых непрочитанных сообщений. Битва воина / Battle Warrior / Nuk soo dane song kram [ужасы, боевик, приключения, 1996] DVDRip, Avo

salma3

56 | 7

1.46 ГБ

В этой теме нет новых непрочитанных сообщений. Терраформирование / Terraformars / Terra Formars [ужасы, фантастика, боевик, 2016] BDRip, Dvo

salma3

163 | 24

1.39 ГБ

В этой теме нет новых непрочитанных сообщений. Терраформирование / Terraformars / Terra Formars [ужасы, фантастика, боевик, 2016] Dvo, BDRip-AVC, Dvo

salma3

66 | 14

1.45 ГБ


Начать новую тему Ответить на тему  [ 1 сообщение ] 




Для Мосгорсуда, Роскомнадзора и рекламодателей:: mosgorsud-torrent[собачка]yandex.ru
cron