Торрент файл
скачать торрент магнет ссылка Добавлен: 22 дек 2012, 11:18
Размер: 7.93 ГБ
Сидеров: 64
Личеров: 16
Статус: (Dracon)
Автор

СообщениеДобавлено: 22 дек 2012, 11:18 

Не в сети
Зам. Админа
Аватара пользователя
Дата регистрации:
02 дек 2010, 12:39
Спасибо: 12652 / 214
Сообщения: 28010


Лоракс в 3Д / The Lorax 3D
«From the creators of Despicable Me.»[/center]
Страна: США
Студия: Illumination Entertainment, Universal Pictures
Жанр: мультфильм, фэнтези, комедия, семейный
Год выпуска: 2012
Продолжительность: 01:26:18

Перевод: Профессиональный (дублированный) + украинский дубляж
Оригинальная аудиодорожка: английская
Русские субтитры: есть
Режиссер: Крис Рено, Кайл Балда / Chris Renaud, Kyle Balda
В ролях: Дэнни ДеВито, Эд Хелмс, Зак Эфрон, Тейлор Свифт, Бетти Уайт, Роб Риггл, Дженни Слейт, Назим Пэдрад, Джоэл Светов, Майкл Битти
Роли дублировали: Александр Гаврилин, Прохор Чеховской, Людмила Гнилова, Сергей Бурунов, Ирина Киреева

Описание:
Недалекое будущее. Стоит нажать на кнопку — и мир изменится по твоему желанию: прямо под окном вырастут горы, во дворе зашумит океан. Единственная неприятность — все вокруг сделано из пластика. Но для влюбленного нет преград. Одно желание прекрасной девушки — увидеть последнее живое дерево — и он пускается в путь.

Качество: BDRip 1080p
Контейнер: MKV
Формат 3D: Half OverUnder / Вертикальная анаморфная стереопара
Порядок ракурсов: левый ракурс первый
Видео кодек: x264
Аудио кодек: AC3
Видео: AVC / [email protected] / 2 pass / 23,976 fps / 1920x1080p / 11,3 Mbps / 0.226
Аудио 1: AC3 / 5.1 ch / 640 kbps / Русский дубляж BD EUR
Аудио 2: AC3 / 5.1 ch / 640 kbps / Украинский дубляж BD EUR
Аудио 3: AC3 / 5.1 ch / 640 kbps / Английский original BD EUR
Субтитры: [softsub SRT]
Русские Forced (надписи и тексты песен) (включены по умолчанию)
Русские Full
Украинские Forced (надписи и тексты песен)
Украинские Full
Английские Full
Английские SDH
Дополнительно: Сохранены оригинальные чаптеры как на Blu-ray
Рип от: HDMaNiAcS

Раздача от:



Дэнни ДеВито, помимо языка оригинала, озвучивал Лоракса в русской, испанской и немецкой версиях.
Герои Тед и Одри были названы в честь Доктора Сьюза (чье настоящее имя Теодор Сьюз Гейзель) и его второй жены Одри Гейзель.
Премьера мультфильма состоялась 2 марта 2012 — в 108 день рождения Доктора Сьюза.



x264 [info]: frame I:1211Avg QP: 7.83size:540406
x264 [info]: frame P:35854 Avg QP:12.26size:116442
x264 [info]: frame B:101488 Avg QP:17.05size: 22175

Общее
Уникальный идентификатор: 197869312360028158260928935046788821707 (0x94DC3E4DD21676479F77317A1F9232CB)
Полное имя: F:Скачка торрентThe.Lorax.3D.2012.BDRip1080p.HalfOU(HDMaNiAcS).mkv
Формат: Matroska
Версия формата: Version 4 / Version 2
Размер файла: 7,93 Гбайт
Продолжительность: 1 ч. 26 м.
Общий поток: 13,2 Мбит/сек
Название фильма: The Lorax 3D (2012) by HDMaNiAcS
Дата кодирования: UTC 2010-02-22 21:41:31
Программа кодирования: mkvmerge v5.9.0 ('On The Loose') built on Dec9 2012 15:37:01
Библиотека кодирования: libebml v1.3.0 + libmatroska v1.4.0
Attachment: Yes

Видео
Идентификатор: 1
Формат: AVC
Формат/Информация: Advanced Video Codec
Профиль формата: [email protected]
Параметр CABAC формата: Да
Параметр ReFrames формата: 4 кадра
Идентификатор кодека: V_MPEG4/ISO/AVC
Продолжительность: 1 ч. 26 м.
Битрейт: 11,3 Мбит/сек
Ширина: 1920 пикселей
Высота: 1080 пикселей
Соотношение сторон: 16:9
Режим частоты кадров: Постоянный
Частота кадров: 23,976 кадра/сек
Цветовое пространство: YUV
Субдискретизация насыщенности: 4:2:0
Битовая глубина: 8 бит
Тип развёртки: Прогрессивная
Бит/(Пиксели*Кадры): 0.226
Размер потока: 6,61 Гбайт (83%)
Заголовок: The Lorax 3D (2012)
Библиотека кодирования: x264 core 124 r2197 69a0443
Настройки программы: cabac=1 / ref=4 / deblock=1:-3:-3 / analyse=0x3:0x113 / me=esa / subme=10 / psy=1 / psy_rd=0.80:0.10 / mixed_ref=1 / me_range=32 / chroma_me=1 / trellis=2 / 8x8dct=1 / cqm=0 / deadzone=21,11 / fast_pskip=0 / chroma_qp_offset=-3 / threads=12 / sliced_threads=0 / nr=0 / decimate=0 / interlaced=0 / bluray_compat=0 / constrained_intra=0 / bframes=7 / b_pyramid=2 / b_adapt=2 / b_bias=0 / direct=3 / weightb=1 / open_gop=0 / weightp=2 / keyint=250 / keyint_min=23 / scenecut=40 / intra_refresh=0 / rc_lookahead=150 / rc=2pass / mbtree=1 / bitrate=11250 / ratetol=1.0 / qcomp=0.70 / qpmin=0 / qpmax=69 / qpstep=4 / cplxblur=20.0 / qblur=0.5 / ip_ratio=1.40 / aq=2:0.80
Язык: English
Default: Да
Forced: Нет

Аудио #1
Идентификатор: 2
Формат: AC-3
Формат/Информация: Audio Coding 3
Расширение режима: CM (complete main)
Параметр Endianness формата: Big
Идентификатор кодека: A_AC3
Продолжительность: 1 ч. 26 м.
Вид битрейта: Постоянный
Битрейт: 640 Кбит/сек
Каналы: 6 каналов
Расположение каналов: Front: L C R, Side: L R, LFE
Частота: 48,0 КГц
Битовая глубина: 16 бит
Метод сжатия: С потерями
Размер потока: 395 Мбайт (5%)
Заголовок: AC3 / 5.1 ch / 640 kbps / Русский дубляж BD EUR
Язык: Russian
Default: Да
Forced: Нет

Аудио #2
Идентификатор: 3
Формат: AC-3
Формат/Информация: Audio Coding 3
Расширение режима: CM (complete main)
Параметр Endianness формата: Big
Идентификатор кодека: A_AC3
Продолжительность: 1 ч. 26 м.
Вид битрейта: Постоянный
Битрейт: 640 Кбит/сек
Каналы: 6 каналов
Расположение каналов: Front: L C R, Side: L R, LFE
Частота: 48,0 КГц
Битовая глубина: 16 бит
Метод сжатия: С потерями
Размер потока: 395 Мбайт (5%)
Заголовок: AC3 / 5.1 ch / 640 kbps / Украинский дубляж BD EUR
Язык: Ukrainian
Default: Нет
Forced: Нет

Аудио #3
Идентификатор: 4
Формат: AC-3
Формат/Информация: Audio Coding 3
Расширение режима: CM (complete main)
Параметр Endianness формата: Big
Идентификатор кодека: A_AC3
Продолжительность: 1 ч. 26 м.
Вид битрейта: Постоянный
Битрейт: 640 Кбит/сек
Каналы: 6 каналов
Расположение каналов: Front: L C R, Side: L R, LFE
Частота: 48,0 КГц
Битовая глубина: 16 бит
Метод сжатия: С потерями
Размер потока: 395 Мбайт (5%)
Заголовок: AC3 / 5.1 ch / 640 kbps / Английский original BD EUR
Язык: English
Default: Нет
Forced: Нет

Текст #1
Идентификатор: 5
Формат: UTF-8
Идентификатор кодека: S_TEXT/UTF8
Идентификатор кодека/Информация: UTF-8 Plain Text
Заголовок: forced
Язык: Russian
Default: Да
Forced: Нет

Текст #2
Идентификатор: 6
Формат: UTF-8
Идентификатор кодека: S_TEXT/UTF8
Идентификатор кодека/Информация: UTF-8 Plain Text
Заголовок: Full
Язык: Russian
Default: Нет
Forced: Нет

Текст #3
Идентификатор: 7
Формат: UTF-8
Идентификатор кодека: S_TEXT/UTF8
Идентификатор кодека/Информация: UTF-8 Plain Text
Заголовок: forced
Язык: Ukrainian
Default: Нет
Forced: Нет

Текст #4
Идентификатор: 8
Формат: UTF-8
Идентификатор кодека: S_TEXT/UTF8
Идентификатор кодека/Информация: UTF-8 Plain Text
Заголовок: Full
Язык: Ukrainian
Default: Нет
Forced: Нет

Текст #5
Идентификатор: 9
Формат: UTF-8
Идентификатор кодека: S_TEXT/UTF8
Идентификатор кодека/Информация: UTF-8 Plain Text
Заголовок: Full
Язык: English
Default: Нет
Forced: Нет

Текст #6
Идентификатор: 10
Формат: UTF-8
Идентификатор кодека: S_TEXT/UTF8
Идентификатор кодека/Информация: UTF-8 Plain Text
Заголовок: SDH
Язык: English
Default: Нет
Forced: Нет

Меню
00:00:00.000: en:00:00:00.000
00:04:13.003: en:00:04:13.003
00:06:38.481: en:00:06:38.481
00:10:04.771: en:00:10:04.771
00:13:56.127: en:00:13:56.127
00:16:39.874: en:00:16:39.874
00:21:30.414: en:00:21:30.414
00:28:18.488: en:00:28:18.488
00:32:49.175: en:00:32:49.175
00:39:49.554: en:00:39:49.554
00:42:26.419: en:00:42:26.419
00:45:45.034: en:00:45:45.034
00:51:21.578: en:00:51:21.578
00:56:32.848: en:00:56:32.848
00:59:07.836: en:00:59:07.836
01:03:18.461: en:01:03:18.461
01:07:13.821: en:01:07:13.821
01:12:35.726: en:01:12:35.726
01:16:05.102: en:01:16:05.102
01:20:23.402: en:01:20:23.402








Вернуться к началу
 Профиль  
 
   Похожие торренты   Автор   Торрент   Размер 
В этой теме нет новых непрочитанных сообщений. Дом / Home (Тим Джонсон) [мультфильм, фантастика, фэнтези, комедия, приключения, семейный, 2015] BDRip 1080p, Dub+Sub [3D-Video | Лицензия]

Dracon

355 | 14

9.53 ГБ

В этой теме нет новых непрочитанных сообщений. Дом / Home (Тим Джонсон) [мультфильм, фантастика, фэнтези, комедия, приключения, семейный, 2015] BDRip 1080p, Dub+Sub [3D-Video | Лицензия]

Dracon

1013 | 132

8.84 ГБ

В этой теме нет новых непрочитанных сообщений. Аисты / Storks ( Мультфильм, Фэнтези, Комедия, Приключения, Семейный, 2016) BDRip 1080p от Ash61 | 3D-Video | halfOU | iTunes

marya111

129 | 91

9.19 ГБ

В этой теме нет новых непрочитанных сообщений. Хороший динозавр / The Good Dinosaur [Мультфильм, фэнтези, комедия, приключения, семейный, 2015] BDRip 1080p, dub [3D-Video | чистый звук]

Dracon

39 | 9

14.07 ГБ

В этой теме нет новых непрочитанных сообщений. Дом / Home (Тим Джонсон) [мультфильм, фантастика, фэнтези, комедия, приключения, семейный, 2015] Blu-Ray Remux 1080p, Dub+Sub [3D-Video | Лицензия]

Dracon

74 | 20

32.12 ГБ

В этой теме нет новых непрочитанных сообщений. Тайна Коко / Coco [мультфильм, фэнтези, комедия, 2017] BDRip 1080p, Dub [3D-Video] [iTunes]

salma3

0 | 0

8.09 ГБ

В этой теме нет новых непрочитанных сообщений. В поисках Дори / Finding Dory [мультфильм, комедия, приключения, семейный, 2016] BDRip 1080p, Dub [3D-Video] [Лицензия]

salma3

155 | 85

10.39 ГБ


Начать новую тему Ответить на тему  [ 1 сообщение ] 




Для Мосгорсуда, Роскомнадзора и рекламодателей:: mosgorsud-torrent[собачка]yandex.ru
cron