Торрент файл
скачать торрент магнет ссылка Добавлен: 15 дек 2012, 09:47
Размер: 6.81 ГБ
Сидеров: 100
Личеров: 16
Статус: (Dracon)
Автор

СообщениеДобавлено: 15 дек 2012, 09:47 

Не в сети
Зам. Админа
Аватара пользователя
Дата регистрации:
02 дек 2010, 12:39
Спасибо: 12652 / 214
Сообщения: 28010
Феи: Тайна зимнего леса в 3Д / Secret of the Wings 3D
«Два мира. Одна тайна»



Страна: США
Студия: Walt Disney Pictures
Жанр:мультфильм, фэнтези, семейный
Год выпуска: 2012
Продолжительность: 01:15:04

Перевод: Русский дубляж [лицензия]
Русские субтитры: есть
Оригинальная аудиодорога: английская
Режиссёр: Роберт Ганнавей, Пегги Холмс / Robert Gannaway, Peggy Holmes
Роли озвучивали: Тимоти Далтон, Люси Хейл, Меган Хилти, Анжелика Хьюстон, Мэтт Лантер, Джесси МакКартни, Мэй Уитман, Люси Лью, Рэйвен, Дебби Райан
Роли дублировали: Юлия Довганишина, Ирина Рахманова, Оксана Фёдорова, Анна Бегунова, Ольга Арнтгольц

Описание:
Динь-Динь и ее подруги всегда боялись пересекать границу с Зимним лесом, ведь существует поверье, что там очень опасно. В один прекрасный день Динь-Динь, сгорая от любопытства, подходит вплотную к лесу, и ее крылья неожиданно начинают блестеть и переливаться. Завороженная Динь, желая узнать тайну волшебных крыльев, кутается в теплое пальто и отправляется в глубь таинственного леса, где ее ждет неожиданное открытие…

Тип релиза: BDRip 1080p
Контейнер: MKV
Видео кодек: x264
Аудио кодек: AC3
Формат 3D: Half OverUnder / Вертикальная анаморфная стереопара
Порядок ракурсов: левый ракурс первый
Видео кодек: x264
Аудио кодек: AC3
Видео: AVC / [email protected] / 23,976 fps / 1920х1080p / 11,5 Mbps / 0.230
Аудио 1: AC3 / 5.1 ch / 640 kbps / Русский дубляж BD EUR
Аудио 2: AC3 / 5.1 ch / 640 kbps / Английский original BD EUR
Субтитры: (softsub SRT)
- Русские Forced (включены по умолчанию, 2 фразы)
- Русские Full
- English Full
- English SDH
Дополнительно: Сохранены оригинальные чаптеры как на Blu-ray
Рип от: Killbrain
----------------------------------------------------------------------------------------
Раздача от:
----------------------------------------------------------------------------------------

----------------------------------------------------------------------------------------

----------------------------------------------------------------------------------------
Общее
Уникальный идентификатор: 232281553572805993970267576417209216145 (0xAEBFCCC9E1A2937DBEF9E362228EEC91)
Полное имя: F:Скачка торрентSecret.of.the.Wings.3D.2012.BDRip1080p.HalfOU(Killbrain).mkv
Формат: Matroska
Версия формата: Version 4 / Version 2
Размер файла: 6,81 Гбайт
Продолжительность: 1 ч. 15 м.
Общий поток: 13,0 Мбит/сек
Название фильма: Secret of the Wings 3D (2012) by Killbrain
Дата кодирования: UTC 2010-02-22 21:41:31
Программа кодирования: mkvmerge v5.9.0 ('On The Loose') built on Dec9 2012 15:37:01
Библиотека кодирования: libebml v1.3.0 + libmatroska v1.4.0

Видео
Идентификатор: 1
Формат: AVC
Формат/Информация: Advanced Video Codec
Профиль формата: [email protected]
Параметр CABAC формата: Да
Параметр ReFrames формата: 4 кадра
Идентификатор кодека: V_MPEG4/ISO/AVC
Продолжительность: 1 ч. 15 м.
Битрейт: 11,4 Мбит/сек
Ширина: 1920 пикселей
Высота: 1080 пикселей
Соотношение сторон: 16:9
Режим частоты кадров: Постоянный
Частота кадров: 23,976 кадра/сек
Цветовое пространство: YUV
Субдискретизация насыщенности: 4:2:0
Битовая глубина: 8 бит
Тип развёртки: Прогрессивная
Бит/(Пиксели*Кадры): 0.230
Размер потока: 6,00 Гбайт (88%)
Заголовок: Secret of the Wings 3D (2012)
Библиотека кодирования: x264 core 128 r2216 198a7ea
Настройки программы: cabac=1 / ref=4 / deblock=1:-3:-3 / analyse=0x3:0x113 / me=umh / subme=9 / psy=1 / psy_rd=1.00:0.15 / mixed_ref=1 / me_range=16 / chroma_me=1 / trellis=2 / 8x8dct=1 / cqm=0 / deadzone=21,11 / fast_pskip=1 / chroma_qp_offset=-3 / threads=3 / lookahead_threads=1 / sliced_threads=0 / slices=4 / nr=0 / decimate=1 / interlaced=0 / bluray_compat=0 / constrained_intra=0 / bframes=6 / b_pyramid=2 / b_adapt=2 / b_bias=0 / direct=3 / weightb=1 / open_gop=0 / weightp=2 / keyint=240 / keyint_min=23 / scenecut=40 / intra_refresh=0 / rc_lookahead=60 / rc=crf / mbtree=1 / crf=16.5 / qcomp=0.70 / qpmin=0 / qpmax=69 / qpstep=4 / vbv_maxrate=40000 / vbv_bufsize=40000 / crf_max=0.0 / nal_hrd=none / frame-packing=4 / ip_ratio=1.40 / aq=1:0.70
Язык: English
Default: Да
Forced: Нет

Аудио #1
Идентификатор: 2
Формат: AC-3
Формат/Информация: Audio Coding 3
Расширение режима: CM (complete main)
Параметр Endianness формата: Big
Идентификатор кодека: A_AC3
Продолжительность: 1 ч. 15 м.
Вид битрейта: Постоянный
Битрейт: 640 Кбит/сек
Каналы: 6 каналов
Расположение каналов: Front: L C R, Side: L R, LFE
Частота: 48,0 КГц
Битовая глубина: 16 бит
Метод сжатия: С потерями
Размер потока: 344 Мбайт (5%)
Заголовок: AC3 / 5.1 ch / 640 kbps / Русский дубляж BD EUR
Язык: Russian
Default: Да
Forced: Нет

Аудио #2
Идентификатор: 3
Формат: AC-3
Формат/Информация: Audio Coding 3
Расширение режима: CM (complete main)
Параметр Endianness формата: Big
Идентификатор кодека: A_AC3
Продолжительность: 1 ч. 15 м.
Вид битрейта: Постоянный
Битрейт: 640 Кбит/сек
Каналы: 6 каналов
Расположение каналов: Front: L C R, Side: L R, LFE
Частота: 48,0 КГц
Битовая глубина: 16 бит
Метод сжатия: С потерями
Размер потока: 344 Мбайт (5%)
Заголовок: AC3 / 5.1 ch / 640 kbps / Английский original BD EUR
Язык: English
Default: Нет
Forced: Нет

Текст #1
Идентификатор: 4
Формат: UTF-8
Идентификатор кодека: S_TEXT/UTF8
Идентификатор кодека/Информация: UTF-8 Plain Text
Заголовок: Forced BD EUR
Язык: Russian
Default: Да
Forced: Нет

Текст #2
Идентификатор: 5
Формат: UTF-8
Идентификатор кодека: S_TEXT/UTF8
Идентификатор кодека/Информация: UTF-8 Plain Text
Заголовок: Full BD EUR
Язык: Russian
Default: Нет
Forced: Нет

Текст #3
Идентификатор: 6
Формат: UTF-8
Идентификатор кодека: S_TEXT/UTF8
Идентификатор кодека/Информация: UTF-8 Plain Text
Заголовок: Full
Язык: English
Default: Нет
Forced: Нет

Текст #4
Идентификатор: 7
Формат: UTF-8
Идентификатор кодека: S_TEXT/UTF8
Идентификатор кодека/Информация: UTF-8 Plain Text
Заголовок: SDH
Язык: English
Default: Нет
Forced: Нет

Меню
00:00:00.000: :Chapter 01
00:05:53.019: :Chapter 02
00:09:04.627: :Chapter 03
00:14:10.516: :Chapter 04
00:20:32.481: :Chapter 05
00:28:17.404: :Chapter 06
00:34:46.209: :Chapter 07
00:40:26.465: :Chapter 08
00:48:07.134: :Chapter 09
00:53:50.685: :Chapter 10
01:00:37.175: :Chapter 11
01:07:47.563: :Chapter 12





Вернуться к началу
 Профиль  
 
   Похожие торренты   Автор   Торрент   Размер 
В этой теме нет новых непрочитанных сообщений. Невероятная тайна Лулу / Loulou, l'incroyable secret (Эрик Омон) [мультфильм, семейный, 2013] BDRip 1080p, Dub [iTunes]

Dracon

273 | 60

4.59 ГБ

В этой теме нет новых непрочитанных сообщений. Тайна Коко / Coco [мультфильм, фэнтези, комедия, 2017] BDRip 1080p, Dub [3D-Video] [iTunes]

salma3

0 | 0

8.09 ГБ

В этой теме нет новых непрочитанных сообщений. Тайна Коко 3D / Coco 3D [мультфильм, фэнтези, комедия, 2017] Blu-Ray EUR 1080p, Dub [Лицензия] [3D-Video]

salma3

0 | 0

37.48 ГБ

В этой теме нет новых непрочитанных сообщений. Дом / Home (Тим Джонсон) [мультфильм, фантастика, фэнтези, комедия, приключения, семейный, 2015] BDRip 1080p, Dub+Sub [3D-Video | Лицензия]

Dracon

1013 | 132

8.84 ГБ

В этой теме нет новых непрочитанных сообщений. Дом / Home (Тим Джонсон) [мультфильм, фантастика, фэнтези, комедия, приключения, семейный, 2015] BDRip 1080p, Dub+Sub [3D-Video | Лицензия]

Dracon

355 | 14

9.53 ГБ

В этой теме нет новых непрочитанных сообщений. Аисты / Storks ( Мультфильм, Фэнтези, Комедия, Приключения, Семейный, 2016) BDRip 1080p от Ash61 | 3D-Video | halfOU | iTunes

marya111

129 | 91

9.19 ГБ

В этой теме нет новых непрочитанных сообщений. Тайная жизнь домашних животных / The Secret Life of Pets [Мультфильм, комедия, семейный, полнометражный, 2016] BDRemux 1080p, Dub [3D-Video] [Лицензия]

salma3

18 | 18

32.22 ГБ


Начать новую тему Ответить на тему  [ 1 сообщение ] 




Для Мосгорсуда, Роскомнадзора и рекламодателей:: mosgorsud-torrent[собачка]yandex.ru
cron