Торрент файл
скачать торрент магнет ссылка Добавлен: 17 окт 2012, 19:53
Размер: 6.9 ГБ
Сидеров: 16
Личеров: 6
Статус: (Dracon)
Автор

СообщениеДобавлено: 17 окт 2012, 19:53 

Не в сети
Зам. Админа
Аватара пользователя
Дата регистрации:
02 дек 2010, 12:39
Спасибо: 12656 / 214
Сообщения: 28010

Год выпуска: 2012
Страна: США
Студия: Blue Sky Studios
Жанр:Мультфильм, комедия, приключения, семейный
Продолжительность: 01:27:45
Перевод: Профессиональный (дублированный) Line
Русские субтитры: нет
Режиссер на русском: Стив Мартино/Майк Тёрмайер
Режиссер на английском: Steve Martino/Mike Thurmeier

Роли озвучивали:

мамонт Мэнни-Рэй Романо (Степан Старчиков)
ленивец Сид-Джон Легуизамо (Антон Комолов)
Элли-Куин Латифа (Ольга Шелест)
Саблезубый тигр Диего-Дэнис Лири (Александр Груздев)
Персик-Джош Пек
Бабуля-Кеке Палмер (Вероника Саркисова)
Капитан Гатт-Питер Динклэйдж (Иван Охлобыстин)
Шира-Дженнифер Лопез (Альбина Джанабаева)

После приключений под землей прошло семь лет. Случился дрейф континентов. Главные герои мультфильма, отделённые от стада,
вынуждены использовать айсберг в качестве плота.Они пересекают океан и попадают в неизвестные им ранее земли с экзотическими животными и пиратами,
враждебно настроенными к ним. Скрэту удаётся получить свой жёлудь, но он перемещается в новые для него земли.


премьера (мир) 26 июня 2012
премьера (РФ) 12 июля 2012
бюджет $95 000 000
сборы в мире $863 683 568



Качество: BDrip
Контейнер: MKV
Формат 3D: Half OverUnder / Вертикальная анаморфная стереопара
Порядок ракурсов: левый ракурс первый
Видео кодек: x264
Аудио кодек: AC3
Видео: AVC / 23,976 fps / 1920х1080p / 9828 Kbps
Аудио 1: Русский / AC3 / 48 KHz / 5.1 ch / 448 Kbps DUB (LIne)
Аудио 2: Английский / AC3 / 48 KHz / 5.1 ch / 640 Kbps
Субтитры: Eng(full)

Общее
Уникальный идентификатор : 179249918782996912451263815872238134591 (0x86DA47531237D8D7ADC2240AEA09253F)
Полное имя : E:3Д мультикиIce Age Continental Drift(3D)2012.halfOU([email protected]).mkv
Формат : Matroska
Версия формата : Version 2
Размер файла : 6,90 Гбайт
Продолжительность : 1 ч. 28 м.
Общий поток : 11,1 Мбит/сек
Название фильма : Ice Age: Continental Drift(3D)2012.halfOU([email protected])
Дата кодирования : UTC 2012-10-17 07:57:23
Программа кодирования : mkvmerge v3.4.0 ('Rapunzel') сборка от May 15 2010 09:38:20
Библиотека кодирования : libebml v0.8.0 + libmatroska v0.9.0

Видео
Идентификатор : 1
Формат : AVC
Формат/Информация : Advanced Video Codec
Профиль формата : [email protected]
Параметр CABAC формата : Да
Параметр ReFrames формата : 4 кадра
Идентификатор кодека : V_MPEG4/ISO/AVC
Продолжительность : 1 ч. 28 м.
Битрейт : 9828 Кбит/сек
Ширина : 1920 пикселей
Высота : 1080 пикселей
Соотношение сторон : 16:9
Режим частоты кадров : Постоянный
Частота кадров : 23,976 кадра/сек
Цветовое пространство : YUV
Субдискретизация насыщенности : 4:2:0
Битовая глубина : 8 бит
Тип развёртки : Прогрессивная
Бит/(Пиксели*Кадры) : 0.198
Размер потока : 6,09 Гбайт (88%)
Библиотека кодирования : x264 core 116 r2074 2641b9e
Настройки программы : cabac=1 / ref=4 / deblock=1:-3:-3 / analyse=0x3:0x133 / me=umh / subme=9 / psy=1 / psy_rd=1.00:0.15 / mixed_ref=1 / me_range=16 / chroma_me=1 / trellis=2 / 8x8dct=1 / cqm=0 / deadzone=21,11 / fast_pskip=1 / chroma_qp_offset=-3 / threads=6 / sliced_threads=0 / nr=0 / decimate=1 / interlaced=0 / bluray_compat=0 / constrained_intra=0 / bframes=6 / b_pyramid=2 / b_adapt=2 / b_bias=0 / direct=3 / weightb=1 / open_gop=0 / weightp=2 / keyint=250 / keyint_min=23 / scenecut=40 / intra_refresh=0 / rc_lookahead=60 / rc=crf / mbtree=1 / crf=17.0 / qcomp=0.70 / qpmin=0 / qpmax=69 / qpstep=4 / vbv_maxrate=50000 / vbv_bufsize=50000 / crf_max=0.0 / nal_hrd=none / ip_ratio=1.40 / aq=1:0.80
Язык : English
Default : Нет
Forced : Нет

Аудио #1
Идентификатор : 2
Формат : AC-3
Формат/Информация : Audio Coding 3
Расширение режима : CM (complete main)
Параметр Endianness формата : Big
Идентификатор кодека : A_AC3
Продолжительность : 1 ч. 28 м.
Вид битрейта : Постоянный
Битрейт : 448 Кбит/сек
Каналы : 6 каналов
Расположение каналов : Front: L C R, Side: L R, LFE
Частота : 48,0 КГц
Битовая глубина : 16 бит
Метод сжатия : С потерями
Размер потока : 284 Мбайт (4%)
Заголовок : DUB (Line)
Язык : Russian
Default : Да
Forced : Нет

Аудио #2
Идентификатор : 3
Формат : AC-3
Формат/Информация : Audio Coding 3
Расширение режима : CM (complete main)
Параметр Endianness формата : Big
Идентификатор кодека : A_AC3
Продолжительность : 1 ч. 28 м.
Вид битрейта : Постоянный
Битрейт : 640 Кбит/сек
Каналы : 6 каналов
Расположение каналов : Front: L C R, Side: L R, LFE
Частота : 48,0 КГц
Битовая глубина : 16 бит
Метод сжатия : С потерями
Размер потока : 406 Мбайт (6%)
Заголовок : Original
Язык : English
Default : Нет
Forced : Нет

Текст
Идентификатор : 4
Формат : UTF-8
Идентификатор кодека : S_TEXT/UTF8
Идентификатор кодека/Информация : UTF-8 Plain Text
Заголовок : Full
Язык : English
Default : Нет
Forced : Нет

Меню
00:00:00.000 : en:00:00:00.000
00:03:25.038 : en:00:03:25.038
00:05:08.225 : en:00:05:08.225
00:09:34.407 : en:00:09:34.407
00:13:09.706 : en:00:13:09.706
00:15:56.330 : en:00:15:56.330
00:18:23.644 : en:00:18:23.644
00:22:24.718 : en:00:22:24.718
00:25:57.556 : en:00:25:57.556
00:29:18.966 : en:00:29:18.966
00:32:58.602 : en:00:32:58.602
00:36:15.382 : en:00:36:15.382
00:38:42.654 : en:00:38:42.654
00:43:49.710 : en:00:43:49.710
00:45:30.645 : en:00:45:30.645
00:49:39.977 : en:00:49:39.977
00:53:50.477 : en:00:53:50.477
00:57:23.857 : en:00:57:23.857
01:02:32.040 : en:01:02:32.040
01:08:09.335 : en:01:08:09.335
01:11:11.476 : en:01:11:11.476
01:13:15.641 : en:01:13:15.641
01:16:54.401 : en:01:16:54.401
01:19:24.635 : en:01:19:24.635



Вернуться к началу
 Профиль  
 
   Похожие торренты   Автор   Торрент   Размер 
В этой теме нет новых непрочитанных сообщений. Ледниковый период: Столкновение неизбежно ( Мультфильм, Фантастика, Комедия, Приключения, Семейный, 2016) BDRip 1080p от Ash61 | 3D-Video | halfOU | iTunes

marya111

155 | 10

8.29 ГБ

В этой теме нет новых непрочитанных сообщений. Ледниковый период: Столкновение неизбежно / Ice Age: Collision Course (Мультфильм, полнометражный, комедия, приключения, семейный, 2016) BDRemux 1080p от ExKinoRay | 3D-Video | Лицензия

marya111

5 | 1

31.37 ГБ

В этой теме нет новых непрочитанных сообщений. Хороший динозавр / The Good Dinosaur [Мультфильм, фэнтези, комедия, приключения, семейный, 2015] BDRip 1080p, dub [3D-Video | чистый звук]

Dracon

39 | 9

14.07 ГБ

В этой теме нет новых непрочитанных сообщений. Ледниковый период: Столкновение неизбежно / Ice Age: Collision Cours [мультфильм, фантастика, комедия, приключения, семейный, 2016] BDRip 1080p, Dub [Лицензия]

salma3

165 | 90

7.79 ГБ

В этой теме нет новых непрочитанных сообщений. Ледниковый период: Столкновение неизбежно / Ice Age: Collision Course [Мультфильм, фантастика, комедия, 2016] BDRip 1080p, Dub [Лицензия] [3D-Video]

salma3

231 | 79

9.06 ГБ

В этой теме нет новых непрочитанных сообщений. Ледниковый период: Столкновение неизбежно / Ice Age: Collision Course [Мультфильм, комедия, приключения, семейный, 2016] BDRip 720p, Dub [Лицензия]

salma3

4 | 5

5.05 ГБ

В этой теме нет новых непрочитанных сообщений. Ледниковый период: Столкновение неизбежно (мультфильм, фантастика, комедия, приключения, семейный,2016) BDRip от ExKinoRay | iTunes

marya111

206 | 2

1.42 ГБ


СообщениеДобавлено: 16 фев 2013, 11:32 

Не в сети
Дата регистрации:
16 фев 2013, 11:28
Спасибо: 0 / 2
Сообщения: 1
А на телик 3D пойдёт? :?:


Вернуться к началу
 Профиль Отправить личное сообщение  
 

СообщениеДобавлено: 16 фев 2013, 11:42 

Не в сети
Зам. Админа
Аватара пользователя
Дата регистрации:
02 дек 2010, 12:39
Спасибо: 12656 / 214
Сообщения: 28010
Dimon-divoox писал(а):
А на телик 3D пойдёт? :?:

так вроде как на нём и пойдёт...


Вернуться к началу
 Профиль  
 
Начать новую тему Ответить на тему  [ Сообщений: 3 ] 




Для Мосгорсуда, Роскомнадзора и рекламодателей:: mosgorsud-torrent[собачка]yandex.ru
cron