Торрент файл
скачать торрент магнет ссылка Добавлен: 03 окт 2012, 20:02
Размер: 5.8 ГБ
Сидеров: 117
Личеров: 12
Статус: (Dracon)
Автор

СообщениеДобавлено: 03 окт 2012, 20:02 

Не в сети
Зам. Админа
Аватара пользователя
Дата регистрации:
02 дек 2010, 12:39
Спасибо: 12656 / 214
Сообщения: 28010


Замбезия / Zambezia

Год выпуска: 2012
Страна: ЮАР (Cinema Management Group, Triggerfish Animation, Wonderful Works, 120dB Films, ...)
Жанр:Мультфильм, Комедия, Приключения, Семейный
Продолжительность: 01:22:25
Перевод: Профессиональный (дублированный)
Русские субтитры: есть

Режиссер: Уэйн Тонли / Wayne Thornley

Роли озвучивали (дублировали):
Kai - Jeremy Suarez
Zoe - Abigail Breslin (Вероника Саркисова)
Neville - Corey Burton (Даниил Эльдаров)
Budzo - Jim Cummings
Pavi - Noureen DeWulf
Nurse Bird - Lee Duru
Ajax - Jeff Goldblum
Cecil - Richard E. Grant
Tini - Tania Gunadi
Tendai - Samuel L. Jackson (Сергей Чихачев)
Marabous - Tom Kenny
Announcer Bird - Phil LaMarr
Gogo - Jenifer Lewis
Neville's Wife - Tress MacNeille
Weaver - Zolani Mahola
Ezee - Jamal Mixon (Пётр Иващенко)
Sekhuru - Leonard Nimoy
Hurricanes - Sam Riegel
Mushana - Deep Roy
Morton - David Shaughnessy

В мультфильме рассказывается история жизни юного соколёнка по имени Кай, его приключения, характер, комичные ситуации в которые он попадает на пути к своей главной цели, на пути к заветному птичьему городку Замбезия, в котором он от всей души желает отыскать новых друзей, которые бы скрасили его одиночество и не оставили в беде. Однако для начала ему необходимо преодолеть путь, который полон опасностей и неожиданных поворотов.

Премьера: 5 июня 2012 (23 августа 2012)
Бюджет: $20 000 000

Проверено на встроенном плейере ТВ Samsung UE-C7000

Качество: BDrip
Контейнер: MKV
Формат 3D: Half OverUnder / Вертикальная анаморфная стереопара
Порядок ракурсов: левый ракурс первый
Видео кодек: x264
Аудио кодек: AC3
Видео: AVC / 23,976 fps / 1920х1080p / 8597 Kbps

Аудио:
#1 - Русский / AC3 / 48 KHz / 5.1 ch / 640 Kbps (Дубляж)
#2 - Английский / AC3 / 48 KHz / 5.1 ch / 640 Kbps

Субтитры: Русские вшитые softsub (SRT) Полные[/center]

General
Unique ID : 191122807196756492808311821819989725297 (0x8FC8E9EB190B3DE797B0D92010D41071)
Complete name : G:DownloadsZambezia(3D)2012.halfOU(Ash61)Zambezia(3D)2012.halfOU(Ash61).mkv
Format : Matroska
Format version : Version 2
File size : 5.80 GiB
Duration : 1h 22mn
Overall bit rate : 10.1 Mbps
Movie name : Zambezia (3D) 2012 (by Ash61)
Encoded date : UTC 2012-10-03 09:57:24
Writing application : mkvmerge v5.8.0 ('No Sleep / Pillow') built on Sep 2 2012 15:37:04
Writing library : libebml v1.2.3 + libmatroska v1.3.0

Video
ID : 1
Format : AVC
Format/Info : Advanced Video Codec
Format profile : [email protected]
Format settings, CABAC : Yes
Format settings, ReFrames : 4 frames
Codec ID : V_MPEG4/ISO/AVC
Duration : 1h 22mn
Bit rate : 8 597 Kbps
Width : 1 920 pixels
Height : 1 080 pixels
Display aspect ratio : 16:9
Frame rate mode : Constant
Frame rate : 23.976 fps
Color space : YUV
Chroma subsampling : 4:2:0
Bit depth : 8 bits
Scan type : Progressive
Bits/(Pixel*Frame) : 0.173
Stream size : 4.95 GiB (85%)
Title : BDrip by Ash61
Writing library : x264 core 119 r2106 07efeb4
Encoding settings : cabac=1 / ref=4 / deblock=1:-3:-3 / analyse=0x3:0x113 / me=umh / subme=9 / psy=1 / psy_rd=1.00:0.15 / mixed_ref=1 / me_range=16 / chroma_me=1 / trellis=2 / 8x8dct=1 / cqm=0 / deadzone=21,11 / fast_pskip=1 / chroma_qp_offset=-3 / threads=12 / sliced_threads=0 / nr=0 / decimate=1 / interlaced=0 / bluray_compat=0 / constrained_intra=0 / bframes=6 / b_pyramid=2 / b_adapt=2 / b_bias=0 / direct=3 / weightb=1 / open_gop=0 / weightp=2 / keyint=250 / keyint_min=23 / scenecut=40 / intra_refresh=0 / rc_lookahead=60 / rc=crf / mbtree=1 / crf=17.0 / qcomp=0.70 / qpmin=0 / qpmax=69 / qpstep=4 / vbv_maxrate=40000 / vbv_bufsize=40000 / crf_max=0.0 / nal_hrd=none / frame-packing=4 / ip_ratio=1.40 / aq=1:0.70
Default : Yes
Forced : No

Audio #1
ID : 2
Format : AC-3
Format/Info : Audio Coding 3
Mode extension : CM (complete main)
Format settings, Endianness : Big
Codec ID : A_AC3
Duration : 1h 22mn
Bit rate mode : Constant
Bit rate : 640 Kbps
Channel(s) : 6 channels
Channel positions : Front: L C R, Side: L R, LFE
Sampling rate : 48.0 KHz
Bit depth : 16 bits
Compression mode : Lossy
Stream size : 377 MiB (6%)
Title : Дубляж
Language : Russian
Default : Yes
Forced : No

Audio #2
ID : 3
Format : AC-3
Format/Info : Audio Coding 3
Mode extension : CM (complete main)
Format settings, Endianness : Big
Codec ID : A_AC3
Duration : 1h 22mn
Bit rate mode : Constant
Bit rate : 640 Kbps
Channel(s) : 6 channels
Channel positions : Front: L C R, Side: L R, LFE
Sampling rate : 48.0 KHz
Bit depth : 16 bits
Compression mode : Lossy
Stream size : 377 MiB (6%)
Language : English
Default : No
Forced : No

Text
ID : 4
Format : UTF-8
Codec ID : S_TEXT/UTF8
Codec ID/Info : UTF-8 Plain Text
Title : Полные
Language : Russian
Default : No
Forced : No

Menu
00:00:00.000 : :1
00:04:46.495 : :2
00:08:27.257 : :3
00:12:58.486 : :4
00:18:24.562 : :5
00:25:37.536 : :6
00:30:46.762 : :7
00:38:11.247 : :8
00:43:55.383 : :9
00:46:52.393 : :10
00:50:51.757 : :11
00:55:05.385 : :12
01:00:01.431 : :13
01:06:04.836 : :14
01:12:11.410 : :15
01:16:37.218 : :16



Вернуться к началу
 Профиль  
 
   Похожие торренты   Автор   Торрент   Размер 
В этой теме нет новых непрочитанных сообщений. Тайна Коко / Coco [мультфильм, фэнтези, комедия, 2017] BDRip 1080p, Dub [3D-Video] [iTunes]

salma3

0 | 0

8.09 ГБ

В этой теме нет новых непрочитанных сообщений. Ледниковый период: Столкновение неизбежно / Ice Age: Collision Course [Мультфильм, фантастика, комедия, 2016] BDRip 1080p, Dub [Лицензия] [3D-Video]

salma3

231 | 79

9.06 ГБ

В этой теме нет новых непрочитанных сообщений. В поисках Дори / Finding Dory [мультфильм, комедия, приключения, семейный, 2016] BDRip 1080p, Dub [3D-Video] [Лицензия]

salma3

155 | 85

10.39 ГБ

В этой теме нет новых непрочитанных сообщений. Смурфики: Затерянная деревня / Smurfs: The Lost Village [Мультфильм, фэнтези, комедия, 2017] BDRip 1080p, Dub [3D-Video] [iTunes]

salma3

85 | 48

7.26 ГБ

В этой теме нет новых непрочитанных сообщений. Аисты / Storks ( Мультфильм, Фэнтези, Комедия, Приключения, Семейный, 2016) BDRip 1080p от Ash61 | 3D-Video | halfOU | iTunes

marya111

129 | 91

9.19 ГБ

В этой теме нет новых непрочитанных сообщений. Миньоны / Minions (Кайл Балда, Пьер Соффин) [мультфильм, комедия, семейный, 2015] BDRip 1080p, Dub+Sub [3D-Video | Лицензия]

Dracon

342 | 36

11.29 ГБ

В этой теме нет новых непрочитанных сообщений. Головоломка / Inside Out (Пит Доктер, Роналдо Дель Кармен) [Мультфильм, комедия, полнометражный, 2015] BDRip 1080p, Dub+Sub [3D-Video | HSBS | лицензия]

Dracon

897 | 40

7.84 ГБ


Начать новую тему Ответить на тему  [ 1 сообщение ] 




Для Мосгорсуда, Роскомнадзора и рекламодателей:: mosgorsud-torrent[собачка]yandex.ru
cron