Торрент файл
скачать торрент магнет ссылка Добавлен: 14 сен 2012, 00:54
Размер: 12.1 ГБ
Сидеров: 19
Личеров: 10
Автор

СообщениеДобавлено: 14 сен 2012, 00:54 

Не в сети
Аватара пользователя
Дата регистрации:
28 ноя 2010, 22:22
Спасибо: 722 / 5
Сообщения: 2030
Кот в сапогах / Puss in Boots«А до Шрэка был...»
Страна: США / DreamWorks Animation
Жанр: мультфильм, комедия, приключения, семейный
Продолжительность: 01:30:15
Год выпуска: 2011
Перевод: Профессиональный (дублированный) [лицензия]
Русские субтитры: есть
Режиссёр: Крис Миллер / Chris Miller
Роли озвучивали / дублировали:
Кот в сапогах - Антонио Бандерас / Всеволод Кузнецов
Киса-Мягколапка - Сальма Хайек / Татьяна Шитова
Шалтай-Болтай - Зак Галифианакис / Диомид Виноградов
Джек - Билли Боб Торнтон / Владимир Зайцев
Джилл - Эми Седарис / Марина Бакина
Имельда - Констанс Мари / Ирина Киреева
Описание: Мечи пересекутся и сердца будут разбиты в приключениях с одним из самых любимых персонажей из Шрэка — котом в сапогах. Это удалая поездка ранних лет кота в сапогах, когда он объединяется с умным Шалтай-Болтаем и сообразительной Кисой, чтобы украсть знаменитую Гусыню, несущую золотые яйца.

На встроенных ТВ-плейерах работать не будет!!!
Качество: BDRip Source: Puss In Boots 2011 1080p 3D Blu-ray AVC TrueHD 7.1-HDC
Формат: MKV
Формат 3D: Full SideBySide / Горизонтальная стереопара
Видео: 3840x816, 23.976 fps, x264, AVC, ~16,9 Mbit/s, 0.225 bit/pixel
Аудио 1: Russian 48 kHz, AC3, 3/2 (L,C,R,l,r) + LFE ch, ~448.00 kbps [лицензия]
Аудио 2: Ukrainian 48 kHz, AC3 Dolby Digital, 3/2 (L,C,R,l,r) + LFE ch, ~448 kbps [лицензия]
Аудио 3: English 48 kHz, DTS, 3/2 (L,C,R,l,r) + LFE ch, ~1510 kbps
Субтитры SRT: Russian [Forced] (включены по умолчанию), Russian, Russian [Voronine], Ukrainian [Forced], Ukrainian, English, English [SDH]
Дополнительная информация: Сохранены оригинальные чаптеры как на Blu-Ray
Подробные технические данные
Код:
Общее
Уникальный идентификатор: 174398873063050980895986698195940717330 (0x8334004DFC143A6D9BD1FBFD4AACB312)
Полное имя: E:\Фильмы\Kot v tapkax 3D 1080p Full-SBS.mkv
Формат: Matroska
Версия формата: Version 2
Размер файла: 12,1 Гбайт
Продолжительность: 1 ч. 30 м.
Общий поток: 19,2 Мбит/сек
Дата кодирования: UTC 2012-03-16 15:46:46
Программа кодирования: mkvmerge v5.0.1 ('Es ist Sommer') built on Oct 24 2011 19:45:06
Библиотека кодирования: libebml v1.2.2 + libmatroska v1.3.0
Видео
Идентификатор: 1
Формат: AVC
Формат/Информация: Advanced Video Codec
Профиль формата: [email protected]
Параметр CABAC формата: Да
Параметр ReFrames формата: 4 кадра
Идентификатор кодека: V_MPEG4/ISO/AVC
Продолжительность: 1 ч. 30 м.
Битрейт: 16,9 Мбит/сек
Ширина: 3840 пикселей
Высота: 816 пикселей
Соотношение сторон: 4,706
Частота кадров: 23,976 кадра/сек
Цветовое пространство: YUV
Субдискретизация насыщенности: 4:2:0
Битовая глубина: 8 бит
Тип развёртки: Прогрессивная
Бит/(Пиксели*Кадры): 0.225
Размер потока: 10,3 Гбайт (85%)
Библиотека кодирования: x264 core 120 r2164 da19765
Настройки программы: cabac=1 / ref=4 / deblock=1:-2:-2 / analyse=0x3:0x133 / me=umh / subme=10 / psy=1 / psy_rd=0.90:0.00 / mixed_ref=1 / me_range=32 / chroma_me=1 / trellis=2 / 8x8dct=1 / cqm=0 / deadzone=21,11 / fast_pskip=0 / chroma_qp_offset=-2 / threads=12 / sliced_threads=0 / nr=0 / decimate=1 / interlaced=0 / bluray_compat=0 / constrained_intra=0 / bframes=7 / b_pyramid=2 / b_adapt=2 / b_bias=0 / direct=3 / weightb=1 / open_gop=0 / weightp=2 / keyint=250 / keyint_min=23 / scenecut=40 / intra_refresh=0 / rc_lookahead=40 / rc=2pass / mbtree=1 / bitrate=16900 / ratetol=1.0 / qcomp=0.60 / qpmin=0 / qpmax=69 / qpstep=4 / cplxblur=20.0 / qblur=0.5 / vbv_maxrate=40000 / vbv_bufsize=30000 / nal_hrd=none / frame-packing=3 / ip_ratio=1.40 / aq=2:0.80
Язык: English
Default: Да
Forced: Нет
Аудио #1
Идентификатор: 2
Формат: AC-3
Формат/Информация: Audio Coding 3
Расширение режима: CM (complete main)
Идентификатор кодека: A_AC3
Продолжительность: 1 ч. 30 м.
Вид битрейта: Постоянный
Битрейт: 448 Кбит/сек
Каналы: 6 каналов
Расположение каналов: Front: L C R, Side: L R, LFE
Частота: 48,0 КГц
Битовая глубина: 16 бит
Метод сжатия: С потерями
Размер потока: 289 Мбайт (2%)
Заголовок: Rus
Язык: Russian
Default: Да
Forced: Нет
Аудио #2
Идентификатор: 3
Формат: AC-3
Формат/Информация: Audio Coding 3
Расширение режима: CM (complete main)
Идентификатор кодека: A_AC3
Продолжительность: 1 ч. 30 м.
Вид битрейта: Постоянный
Битрейт: 448 Кбит/сек
Каналы: 6 каналов
Расположение каналов: Front: L C R, Side: L R, LFE
Частота: 48,0 КГц
Битовая глубина: 16 бит
Метод сжатия: С потерями
Размер потока: 289 Мбайт (2%)
Заголовок: Ukr
Язык: Ukrainian
Default: Нет
Forced: Нет
Аудио #3
Идентификатор: 4
Формат: DTS
Формат/Информация: Digital Theater Systems
Идентификатор кодека: A_DTS
Продолжительность: 1 ч. 30 м.
Вид битрейта: Постоянный
Битрейт: 1510 Кбит/сек
Каналы: 6 каналов
Расположение каналов: Front: L C R, Side: L R, LFE
Частота: 48,0 КГц
Битовая глубина: 24 бит
Метод сжатия: С потерями
Размер потока: 975 Мбайт (8%)
Заголовок: Eng
Язык: English
Default: Нет
Forced: Нет
Текст #1
Идентификатор: 5
Формат: UTF-8
Идентификатор кодека: S_TEXT/UTF8
Идентификатор кодека/Информация: UTF-8 Plain Text
Заголовок: Rus Forced
Язык: Russian
Default: Да
Forced: Нет
Текст #2
Идентификатор: 6
Формат: UTF-8
Идентификатор кодека: S_TEXT/UTF8
Идентификатор кодека/Информация: UTF-8 Plain Text
Заголовок: Rus
Язык: Russian
Default: Нет
Forced: Нет
Текст #3
Идентификатор: 7
Формат: UTF-8
Идентификатор кодека: S_TEXT/UTF8
Идентификатор кодека/Информация: UTF-8 Plain Text
Заголовок: Rus Voronin
Язык: Russian
Default: Нет
Forced: Нет
Текст #4
Идентификатор: 8
Формат: UTF-8
Идентификатор кодека: S_TEXT/UTF8
Идентификатор кодека/Информация: UTF-8 Plain Text
Заголовок: Ukr Forced
Язык: Ukrainian
Default: Нет
Forced: Нет
Текст #5
Идентификатор: 9
Формат: UTF-8
Идентификатор кодека: S_TEXT/UTF8
Идентификатор кодека/Информация: UTF-8 Plain Text
Заголовок: Ukr
Язык: Ukrainian
Default: Нет
Forced: Нет
Текст #6
Идентификатор: 10
Формат: UTF-8
Идентификатор кодека: S_TEXT/UTF8
Идентификатор кодека/Информация: UTF-8 Plain Text
Заголовок: Eng
Язык: English
Default: Нет
Forced: Нет
Текст #7
Идентификатор: 11
Формат: UTF-8
Идентификатор кодека: S_TEXT/UTF8
Идентификатор кодека/Информация: UTF-8 Plain Text
Заголовок: Eng SDH
Язык: English
Default: Нет
Forced: Нет
Меню
00:00:00.000: en:00:00:00.000
00:03:25.247: en:00:03:25.247
00:07:20.148: en:00:07:20.148
00:11:46.831: en:00:11:46.831
00:15:53.369: en:00:15:53.369
00:19:23.537: en:00:19:23.537
00:25:58.348: en:00:25:58.348
00:29:22.427: en:00:29:22.427
00:34:06.461: en:00:34:06.461
00:39:17.438: en:00:39:17.438
00:44:12.108: en:00:44:12.108
00:49:34.054: en:00:49:34.054
00:54:05.951: en:00:54:05.951
00:57:38.205: en:00:57:38.205
01:03:05.991: en:01:03:05.991
01:08:14.716: en:01:08:14.716
01:16:51.774: en:01:16:51.774
01:19:42.194: en:01:19:42.194
Скриншот c названием фильма
Скриншоты



Вернуться к началу
 Профиль Отправить личное сообщение  
 
   Похожие торренты   Автор   Торрент   Размер 
В этой теме нет новых непрочитанных сообщений. Кот в сапогах / Puss in Boots [мультфильм, комедия, приключения, 2011] BDRip 1080p, Dub

salma3

18 | 1

4.37 ГБ

В этой теме нет новых непрочитанных сообщений. Приключения кота в сапогах / The Adventures of Puss in Boots [S03] [Мультсериал, комедия, приключения, семейный, 2016] WEBRip, Mvo [NewStudio]

salma3

105 | 32

3.02 ГБ

В этой теме нет новых непрочитанных сообщений. Приключения кота в сапогах / The Adventures of Puss in Boots [S02] [Мультсериал, комедия, приключения, семейный, 2016] WEBRip 720p, Mvo [NewStudio]

salma3

207 | 32

3.96 ГБ

В этой теме нет новых непрочитанных сообщений. Приключения кота в сапогах / The Adventures of Puss in Boots [01x01-15 из 15] (Даг Лэнгдэйл) [Мультсериал, комедия, приключения, семейный, 2015] WEBRip [NewStudio]

Dracon

914 | 329

4.32 ГБ

В этой теме нет новых непрочитанных сообщений. Приключения кота в сапогах / The Adventures of Puss in Boots [2 сезон: 1-11 серия из 11] [Мультсериал, комедия, приключения, семейный, 2016] WEBRip [NewStudio]

Dracon

180 | 47

3.22 ГБ

В этой теме нет новых непрочитанных сообщений. Приключения кота в сапогах / The Adventures of Puss in Boots [01x01-15 из 15] (Даг Лэнгдэйл) [Мультсериал, комедия, приключения, семейный, 2015] WEBRip 720p [NewStudio]

Dracon

245 | 149

6.43 ГБ

В этой теме нет новых непрочитанных сообщений. Кот в сапогах / Puss in Boots (1968) HDTVRip-AVC от SDIncorporation

marya111

0 | 0

315.19 МБ


Начать новую тему Ответить на тему  [ 1 сообщение ] 




Для Мосгорсуда, Роскомнадзора и рекламодателей:: mosgorsud-torrent[собачка]yandex.ru
cron