Торрент файл
скачать торрент магнет ссылка Добавлен: 14 сен 2012, 00:53
Размер: 5.72 ГБ
Сидеров: 8
Личеров: 4
Автор

СообщениеДобавлено: 14 сен 2012, 00:53 

Не в сети
Аватара пользователя
Дата регистрации:
28 ноя 2010, 22:22
Спасибо: 722 / 5
Сообщения: 2030
Шрек Третий в 3Д / Shrek the Third 3D Слоган «Да приидет царствие его»
Страна: США
Жанр: фэнтези, комедия, приключения, семейный, мультфильм
Продолжительность: 01:32:43
Год выпуска:2007
Перевод: Профессиональный (дублированный)
Русские субтитры: есть
Режиссер: Крис Миллер / Chris Miller, Раман Хуи / Raman Hui
Сценарий: Уильям Стейг / William Steig, Джош Клауснер / Josh Klausner, Коуди Камерон / Cody Cameron, Роберт Портер / Robert Porter, Дэвид П. Смит / David P. Smith
Продюсер: Эндрю Адамсон / Andrew Adamson, Дэниз Нолан Каскино / Denise Nolan Cascino, Арон Уорнер / Aron Warner, Джон Х. Уильямс / John H. Williams
Композитор: Гарри Грегсон-Уильямс / Harry Gregson-Williams
В ролях: Майк Майерс (Shrek, озвучка), Эдди Мёрфи (Donkey, озвучка), Кэмерон Диаз (Princess Fiona, озвучка), Антонио Бандерас (Puss in Boots, озвучка), Джули Эндрюс (Queen, озвучка), Джон Клиз (King, озвучка), Руперт Эверет (Prince Charming, озвучка), Эрик Айдл (Merlin, озвучка), Джастин Тимберлэйк (Artie, озвучка), Сьюзан Блэйксли (Evil Queen, озвучка), Коуди Камерон (Pinocchio / Three Pigs, озвучка), Ларри Кинг (Doris, озвучка)
Дублёры: Алексей Колган (Shrek), Вадим Андреев (Donkey), Жанна Никонова (Princess Fiona), Всеволод Кузнецов (Puss in Boots), Любовь Германова (Queen), Игорь Ясулович (King), Анатолий Белый (Prince Charming), Александр Леньков (Merlin), Сергей Лазарев (Artie), Олег Вирозуб (Pinocchio), Сергей Чонишвили (Doris), Вячеслав Баранов (Blind Mice)
Описание: Королем может быть не каждый - особенно если вы Огр. Когда Шрэк женился на принцессе Фионе, он меньше всего на свете хотел управлять Далекой-Далекой страной. Такой он не властолюбивый. Однако отец Фионы, король Гарольд, внезапно умирает, и корону должен унаследовать именно Шрэк. Как-никак, он все-таки муж наследницы.
Шрэку не нужно бремя власти, и он решает отправиться вместе со своими старыми друзьями Ослом и Котом в сапогах на поиски кандидата на трон. Если Шрэк не найдет себе подходящей замены, ему придется управлять сказочной страной самому… и это надолго. Похоже, что наследник Артур - тот, кто им нужен.
Тем временем в отсутствие великана его старый враг принц по имени Чарминг замышляет месть, для чего и возвращается в сказочную страну. Шрэку придется очень постараться, чтобы спасти страну от происков врагов и от возможного переворота.
Бюджет: $160 000 000
Сборы в России: $23 387 850
Сборы в США: $322 719 944
Сборы в мире: $798 958 165

Знаете ли вы, что...
* Новыми действующими лицами в этой серии, помимо принца Арти, стали традиционные персонажи легенд о рыцарях Круглого Стола — Мерлин (Эрик Айдл) и Ланселот (Джон Красински).
* Антонио Бандерас в фильме говорит, помимо английского языка, ещё на итальянском и испанском.
* В одной из сцен у Пряничного человечка перед глазами проносится вся его жизнь. Это отсыл к фильму «Человек на шесть миллионов долларов» (1974). Кстати, согласно этой сцене, Пряничный человечек женат (или был женат).
* Фильм развозился по кинотеатрам под фальшивым именем «Stone» («Камень»).
* Во время представления принца Чарминга в театре сидят 1373 персонажа.
* В конце фильма в своей театральной постановке принц Чарминг появляется на сцене из большой ракушки. Этот эпизод фактически повторение сцены из «Русалочки» Диснея.
Качество: BDrip
Формат: MKV
Формат 3D: Anaglyph / Анаглиф red'cyan
Видео кодек: x264
Аудио кодек: AC3, DTS
Видео: MPEG4 Video (H264) 1920x1080 23.98fps 6503 Kbps
Аудио 1: Russian : Dolby AC3 48000Hz 5.1ch 640 kbps
Аудио 2: English : DTS 48000Hz 5.1ch 1510kbps
me
Format : Matroska
File size : 5.72 GiB
Duration : 1h 32mn
Overall bit rate : 8 828 Kbps
Encoded date : UTC 2010-12-21 01:36:23
Writing application : mkvmerge v2.9.7 ('Tenderness') built on Jul 1 2009 18:43:35
Writing library : libebml v0.7.7 + libmatroska v0.8.1
Video
ID : 1
Format : AVC
Format/Info : Advanced Video Codec
Format profile : [email protected]
Format settings, CABAC : Yes
Format settings, ReFrames : 4 frames
Muxing mode : Container [email protected]
Codec ID : V_MPEG4/ISO/AVC
Duration : 1h 32mn
Bit rate : 6 503 Kbps
Width : 1 920 pixels
Height : 1 080 pixels
Display aspect ratio : 16:9
Frame rate : 23.976 fps
Color space : YUV
Chroma subsampling : 4:2:0
Bit depth : 8 bits
Scan type : Progressive
Bits/(Pixel*Frame) : 0.131
Stream size : 4.21 GiB (74%)
Writing library : x264 core 110 r1820 fdcf2ae
Encoding settings : cabac=1 / ref=4 / deblock=1:-2:-2 / analyse=0x3:0x113 / me=umh / subme=7 / psy=1 / psy_rd=1.00:0.15 / mixed_ref=1 / me_range=16 / chroma_me=1 / trellis=2 / 8x8dct=1 / cqm=0 / deadzone=21,11 / fast_pskip=1 / chroma_qp_offset=-3 / threads=6 / sliced_threads=0 / nr=0 / decimate=1 / interlaced=0 / constrained_intra=0 / bframes=6 / b_pyramid=0 / b_adapt=2 / b_bias=0 / direct=3 / weightb=1 / open_gop=0 / weightp=2 / keyint=250 / keyint_min=23 / scenecut=40 / intra_refresh=0 / rc_lookahead=40 / rc=crf / mbtree=1 / crf=18.0 / qcomp=0.60 / qpmin=10 / qpmax=51 / qpstep=4 / ip_ratio=1.40 / aq=1:1.00
Language : English
Audio #1
ID : 2
Format : AC-3
Format/Info : Audio Coding 3
Mode extension : CM (complete main)
Codec ID : A_AC3
Duration : 1h 32mn
Bit rate mode : Constant
Bit rate : 640 Kbps
Channel(s) : 6 channels
Channel positions : Front: L C R, Side: L R, LFE
Sampling rate : 48.0 KHz
Bit depth : 16 bits
Stream size : 424 MiB (7%)
Title : Дубляж
Language : Russian
Audio #2
ID : 3
Format : DTS
Format/Info : Digital Theater Systems
Codec ID : A_DTS
Duration : 1h 32mn
Bit rate mode : Constant
Bit rate : 1 510 Kbps
Channel(s) : 6 channels
Channel positions : Front: L C R, Side: L R, LFE
Sampling rate : 48.0 KHz
Bit depth : 24 bits
Stream size : 1 001 MiB (17%)
Title : Английский
Language : English
Text #1
ID : 4
Format : UTF-8
Codec ID : S_TEXT/UTF8
Codec ID/Info : UTF-8 Plain Text
Title : Русские
Language : Russian
Text #2
ID : 5
Format : UTF-8
Codec ID : S_TEXT/UTF8
Codec ID/Info : UTF-8 Plain Text
Title : Английские
Language : English
Скриншоты



Вернуться к началу
 Профиль Отправить личное сообщение  
 
   Похожие торренты   Автор   Торрент   Размер 
В этой теме нет новых непрочитанных сообщений. Шрек: Квадрология / Shrek: Quadrilogy [мультфильм, фэнтези, комедия, 2001-2010] BDRip-HEVC 1080p, Dub

salma3

10 | 2

14.26 ГБ

В этой теме нет новых непрочитанных сообщений. Аисты / Storks [мультфильм, фэнтези, комедия, приключения, семейный, 2016] BDRip 1080p, Dub [Лицензия]

salma3

59 | 14

8.86 ГБ

В этой теме нет новых непрочитанных сообщений. Аисты / Storks ( Мультфильм, Фэнтези, Комедия, Приключения, Семейный, 2016) BDRip 1080p от Ash61 | 3D-Video | halfOU | iTunes

marya111

129 | 91

9.19 ГБ

В этой теме нет новых непрочитанных сообщений. Хороший динозавр / The Good Dinosaur [Мультфильм, фэнтези, комедия, приключения, семейный, 2015] BDRip 1080p, dub [чистый звук]

Dracon

321 | 12

4.5 ГБ

В этой теме нет новых непрочитанных сообщений. Хороший динозавр / The Good Dinosaur [Мультфильм, фэнтези, комедия, приключения, семейный, 2015] BDRip 1080p, dub [3D-Video | чистый звук]

Dracon

39 | 9

14.07 ГБ

В этой теме нет новых непрочитанных сообщений. Хороший динозавр / The Good Dinosaur (Питер Сон) [2015, Мультфильм, фэнтези, комедия, приключения, семейный, BDRip 1080p | Чистый звук] Dub

marya111

142 | 5

4.51 ГБ

В этой теме нет новых непрочитанных сообщений. Хороший динозавр / The Good Dinosaur (мультфильм, фэнтези, комедия, приключения, семейный, 2015) BDRip 1080p от New-Team & qqss44 | Локализованная версия | Лицензия

marya111

65 | 21

5.75 ГБ


Начать новую тему Ответить на тему  [ 1 сообщение ] 




Для Мосгорсуда, Роскомнадзора и рекламодателей:: mosgorsud-torrent[собачка]yandex.ru
cron