Торрент файл
скачать торрент магнет ссылка Добавлен: 14 сен 2012, 00:52
Размер: 22.88 ГБ
Сидеров: 2
Личеров: 6
Автор

СообщениеДобавлено: 14 сен 2012, 00:52 

Не в сети
Аватара пользователя
Дата регистрации:
28 ноя 2010, 22:22
Спасибо: 722 / 5
Сообщения: 2030
Ронал-варвар / Ronal barbaren
Год выпуска: 2011
Страна: Дания
Жанр: мультфильм, фэнтези, приключения
Продолжительность: 01:29:16
Перевод: Профессиональный (дублированный)
Русские субтитры: есть
Режиссер на русском: Крестен Вестбьерг Андерсен, Торбьорн Кристофферсен, Филип Эйнштейн Липски
Режиссер на английском: Kresten Vestbjerg Andersen, Thorbjørn Christoffersen, Philip Einstein Lipski
В ролях: Андерс Юль, Хади Ка-Куш, Лерке Винтер Андерсен, Брайан Лукке, Ларс Миккельсен, Питер Од, Ларс Бом, Оле Теструп, Пребен Кристенсен, Оле Эрнст
Роли озвучивали: Николай Быстров, Александр Пушной, Мария Кожевникова, Денис Ясик, Никита Джигурда
Описание: Ронал — самый нетипичный варвар на Земле. Его не интересуют ни битвы, ни завоевания, ни пиры. Больше всего на свете ему хочется, чтобы все просто оставили его в покое. Но судьба распоряжается иначе. Однажды злобный принц Вольказар, вождь враждебного племени, захватывает всех варваров в плен, чтобы принести их в жертву древним богам и обрести власть над миром. На свободе остается лишь Ронал. И теперь ему вместе с безалаберным бардом Алибером, мускулистой девой-воительницей Зандрой и эльфом-метросексуалом Эльриком предстоит пройти множество испытаний, чтобы освободить свой народ, обрести веру в себя и… найти любовь.
Бонусы:
• Музыкальное видео;
• За кадром;
• Тизеры и трейлеры "Ронал Варвар".
Меню: На английском, анимированное, озвученное
От:
Качество: Blu-Ray Disc
Контейнер: ISO
Формат 3D: Blu-ray 3D
Видео кодек: MVC
Аудио кодек: DTS, AC3, DTS-HD
Видео: MPEG-4 AVC, 18,7 Мбит/сек, 1920x1080, 16:9, 25 fps
Аудио 1: Russian, DTS Audio, 768 kbps, 5.1, 48 kHz, 16-bit
Аудио 2: русский, Dolby Digital Audio, 256 kbps, 5.1, 48 kHz, DN -4dB
Аудио 3: датский, DTS-HD Master Audio, 5.1, 48 kHz, 16-bit (DTS Core: 5.1 / 48 kHz / 1509 kbps / 16-bit)
Субтитры: Датские, норвежские, русские
BDInfo
Disc Title: RONAL_BARBAREN_3D_BLUEBIRD
Disc Size: 24 561 797 608 bytes
Protection: AACS
BD-Java: No
Extras: 50Hz Content, Blu-ray 3D
BDInfo: 0.5.8
Notes:
BDINFO HOME:
Cinema Squid
http://www.cinemasquid.com/blu-ray/tools/bdinfo
INCLUDES FORUMS REPORT FOR:
AVS Forum Blu-ray Audio and Video Specifications Thread
http://www.avsforum.com/avs-vb/showthread.php?t=1155731
WARNING: Report is incomplete because: Scan has not been run.
********************
PLAYLIST: 00005.MPLS
********************
<--- BEGIN FORUMS PASTE --->Код:
Код:
Total   Video
Title                                                           Codec   Length  Movie Size      Disc Size       Bitrate Bitrate Main Audio Track                          Secondary Audio Track
-----                                                           ------  ------- --------------  --------------  ------- ------- ------------------                        ---------------------
00005.MPLS                                                      AVC     1:29:16 0               24 561 797 608  0,00    0,00    DTS 5.1 768Kbps (48kHz/16-bit)            DD AC3 5.1 256Kbps

Код:
Код:
DISC INFO:
Disc Title:     RONAL_BARBAREN_3D_BLUEBIRD
Disc Size:      24 561 797 608 bytes
Protection:     AACS
BD-Java:        No
Extras:         50Hz Content, Blu-ray 3D
BDInfo:         0.5.8
PLAYLIST REPORT:
Name:                   00005.MPLS
Length:                 1:29:16.976 (h:m:s.ms)
Size:                   0 bytes
Total Bitrate:          0,00 Mbps
VIDEO:
Codec                   Bitrate             Description
-----                   -------             -----------
MPEG-4 AVC Video        0 kbps              1080p / 23,976 fps / 16:9 / High Profile 4.1
MPEG-4 MVC Video        0 kbps
AUDIO:
Codec                           Language        Bitrate         Description
-----                           --------        -------         -----------
DTS Audio                       Russian         768 kbps        5.1 / 48 kHz / 768 kbps / 16-bit
Dolby Digital Audio             Russian         256 kbps        5.1 / 48 kHz / 256 kbps / DN -4dB
DTS-HD Master Audio             Danish          0 kbps          5.1 / 48 kHz / 16-bit (DTS Core: 5.1 / 48 kHz / 1509 kbps / 16-bit)
SUBTITLES:
Codec                           Language        Bitrate         Description
-----                           --------        -------         -----------
Presentation Graphics           Danish          0,000 kbps
Presentation Graphics           Norwegian       0,000 kbps
Presentation Graphics           Russian         0,000 kbps
FILES:
Name            Time In         Length          Size            Total Bitrate
----            -------         ------          ----            -------------
00005.SSIF      0:00:00.000     1:29:16.976     0               0
CHAPTERS:
Number          Time In         Length          Avg Video Rate  Max 1-Sec Rate  Max 1-Sec Time  Max 5-Sec Rate  Max 5-Sec Time  Max 10Sec Rate  Max 10Sec Time  Avg Frame Size  Max Frame Size  Max Frame Time
------          -------         ------          --------------  --------------  --------------  --------------  --------------  --------------  --------------  --------------  --------------  --------------
1               0:00:00.000     0:09:15.972     0 kbps          0 kbps          00:00:00.000    0 kbps          00:00:00.000    0 kbps          00:00:00.000    0 bytes         0 bytes         00:00:00.000
2               0:09:15.972     0:06:00.818     0 kbps          0 kbps          00:00:00.000    0 kbps          00:00:00.000    0 kbps          00:00:00.000    0 bytes         0 bytes         00:00:00.000
3               0:15:16.790     0:09:26.065     0 kbps          0 kbps          00:00:00.000    0 kbps          00:00:00.000    0 kbps          00:00:00.000    0 bytes         0 bytes         00:00:00.000
4               0:24:42.856     0:06:51.452     0 kbps          0 kbps          00:00:00.000    0 kbps          00:00:00.000    0 kbps          00:00:00.000    0 bytes         0 bytes         00:00:00.000
5               0:31:34.309     0:07:12.849     0 kbps          0 kbps          00:00:00.000    0 kbps          00:00:00.000    0 kbps          00:00:00.000    0 bytes         0 bytes         00:00:00.000
6               0:38:47.158     0:08:47.193     0 kbps          0 kbps          00:00:00.000    0 kbps          00:00:00.000    0 kbps          00:00:00.000    0 bytes         0 bytes         00:00:00.000
7               0:47:34.351     0:08:57.078     0 kbps          0 kbps          00:00:00.000    0 kbps          00:00:00.000    0 kbps          00:00:00.000    0 bytes         0 bytes         00:00:00.000
8               0:56:31.429     0:05:30.997     0 kbps          0 kbps          00:00:00.000    0 kbps          00:00:00.000    0 kbps          00:00:00.000    0 bytes         0 bytes         00:00:00.000
9               1:02:02.427     0:06:35.478     0 kbps          0 kbps          00:00:00.000    0 kbps          00:00:00.000    0 kbps          00:00:00.000    0 bytes         0 bytes         00:00:00.000
10              1:08:37.905     0:07:32.994     0 kbps          0 kbps          00:00:00.000    0 kbps          00:00:00.000    0 kbps          00:00:00.000    0 bytes         0 bytes         00:00:00.000
11              1:16:10.899     0:08:36.516     0 kbps          0 kbps          00:00:00.000    0 kbps          00:00:00.000    0 kbps          00:00:00.000    0 bytes         0 bytes         00:00:00.000
12              1:24:47.415     0:04:29.560     0 kbps          0 kbps          00:00:00.000    0 kbps          00:00:00.000    0 kbps          00:00:00.000    0 bytes         0 bytes         00:00:00.000
STREAM DIAGNOSTICS:
File            PID             Type            Codec           Language                Seconds                 Bitrate                 Bytes           Packets
----            ---             ----            -----           --------                --------------          --------------          -------------   -----
00005.SSIF      4114 (0x1012)   0x20            MVC                                     19,770                  0                       0               0
00005.SSIF      4608 (0x1200)   0x90            PGS             dan (Danish)            19,770                  0                       0               0
00005.SSIF      4609 (0x1201)   0x90            PGS             nor (Norwegian)         19,770                  0                       0               0
00005.SSIF      4610 (0x1202)   0x90            PGS             rus (Russian)           19,770                  0                       0               0
00005.SSIF      4113 (0x1011)   0x1B            AVC                                     19,770                  0                       0               0
00005.SSIF      4352 (0x1100)   0x82            DTS             rus (Russian)           19,770                  0                       0               0
00005.SSIF      4353 (0x1101)   0x81            AC3             rus (Russian)           19,770                  0                       0               0
00005.SSIF      4354 (0x1102)   0x86            DTS-HD MA       dan (Danish)            19,770                  0                       0               0

<---- END FORUMS PASTE ---->
QUICK SUMMARY:
Disc Title: RONAL_BARBAREN_3D_BLUEBIRD
Disc Size: 24 561 797 608 bytes
Protection: AACS
BD-Java: No
Playlist: 00005.MPLS
Size: 0 bytes
Length: 1:29:16.976
Total Bitrate: 0,00 Mbps
Video: MPEG-4 AVC Video / 0 kbps / 1080p / 23,976 fps / 16:9 / High Profile 4.1
Video: MPEG-4 MVC Video / 0 kbps /
Audio: Russian / DTS Audio / 5.1 / 48 kHz / 768 kbps / 16-bit
Audio: Russian / Dolby Digital Audio / 5.1 / 48 kHz / 256 kbps / DN -4dB
Audio: Danish / DTS-HD Master Audio / 5.1 / 48 kHz / 16-bit (DTS Core: 5.1 / 48 kHz / 1509 kbps / 16-bit)
Subtitle: Danish / 0,000 kbps
Subtitle: Norwegian / 0,000 kbps
Subtitle: Russian / 0,000 kbps
********************
PLAYLIST: 00003.MPLS
********************
<--- BEGIN FORUMS PASTE --->Код:
Код:
Total   Video
Title                                                           Codec   Length  Movie Size      Disc Size       Bitrate Bitrate Main Audio Track                          Secondary Audio Track
-----                                                           ------  ------- --------------  --------------  ------- ------- ------------------                        ---------------------
00003.MPLS                                                      AVC     0:19:36 0               24 561 797 608  0,00    0,00    DD AC3 2.0 448Kbps

Код:
Код:
DISC INFO:
Disc Title:     RONAL_BARBAREN_3D_BLUEBIRD
Disc Size:      24 561 797 608 bytes
Protection:     AACS
BD-Java:        No
Extras:         50Hz Content, Blu-ray 3D
BDInfo:         0.5.8
PLAYLIST REPORT:
Name:                   00003.MPLS
Length:                 0:19:36.360 (h:m:s.ms)
Size:                   0 bytes
Total Bitrate:          0,00 Mbps
VIDEO:
Codec                   Bitrate             Description
-----                   -------             -----------
MPEG-4 AVC Video        0 kbps              1080i / 25 fps / 16:9 / High Profile 4.1
AUDIO:
Codec                           Language        Bitrate         Description
-----                           --------        -------         -----------
Dolby Digital Audio             Danish          448 kbps        2.0 / 48 kHz / 448 kbps / DN -4dB
FILES:
Name            Time In         Length          Size            Total Bitrate
----            -------         ------          ----            -------------
00022.M2TS      0:00:00.000     0:02:21.720     0               0
00023.M2TS      0:02:21.720     0:02:05.440     0               0
00021.M2TS      0:04:27.160     0:03:02.000     0               0
00024.M2TS      0:07:29.160     0:03:53.960     0               0
00025.M2TS      0:11:23.120     0:01:55.519     0               0
00026.M2TS      0:13:18.640     0:03:45.679     0               0
00027.M2TS      0:17:04.320     0:02:32.039     0               0
CHAPTERS:
Number          Time In         Length          Avg Video Rate  Max 1-Sec Rate  Max 1-Sec Time  Max 5-Sec Rate  Max 5-Sec Time  Max 10Sec Rate  Max 10Sec Time  Avg Frame Size  Max Frame Size  Max Frame Time
------          -------         ------          --------------  --------------  --------------  --------------  --------------  --------------  --------------  --------------  --------------  --------------
1               0:00:00.000     0:02:21.720     0 kbps          0 kbps          00:00:00.000    0 kbps          00:00:00.000    0 kbps          00:00:00.000    0 bytes         0 bytes         00:00:00.000
2               0:02:21.720     0:02:05.440     0 kbps          0 kbps          00:00:00.000    0 kbps          00:00:00.000    0 kbps          00:00:00.000    0 bytes         0 bytes         00:00:00.000
3               0:04:27.160     0:03:02.000     0 kbps          0 kbps          00:00:00.000    0 kbps          00:00:00.000    0 kbps          00:00:00.000    0 bytes         0 bytes         00:00:00.000
4               0:07:29.160     0:03:53.960     0 kbps          0 kbps          00:00:00.000    0 kbps          00:00:00.000    0 kbps          00:00:00.000    0 bytes         0 bytes         00:00:00.000
5               0:11:23.120     0:01:55.519     0 kbps          0 kbps          00:00:00.000    0 kbps          00:00:00.000    0 kbps          00:00:00.000    0 bytes         0 bytes         00:00:00.000
6               0:13:18.640     0:03:45.680     0 kbps          0 kbps          00:00:00.000    0 kbps          00:00:00.000    0 kbps          00:00:00.000    0 bytes         0 bytes         00:00:00.000
7               0:17:04.320     0:02:32.039     0 kbps          0 kbps          00:00:00.000    0 kbps          00:00:00.000    0 kbps          00:00:00.000    0 bytes         0 bytes         00:00:00.000
STREAM DIAGNOSTICS:
File            PID             Type            Codec           Language                Seconds                 Bitrate                 Bytes           Packets
----            ---             ----            -----           --------                --------------          --------------          -------------   -----
00022.M2TS      4113 (0x1011)   0x1B            AVC                                     0                       0                       0               0
00022.M2TS      4352 (0x1100)   0x81            AC3             dan (Danish)            0                       0                       0               0
00023.M2TS      4113 (0x1011)   0x1B            AVC                                     0,040                   0                       0               0
00023.M2TS      4352 (0x1100)   0x81            AC3             dan (Danish)            0,040                   0                       0               0
00021.M2TS      4113 (0x1011)   0x1B            AVC                                     0,040                   0                       0               0
00021.M2TS      4352 (0x1100)   0x81            AC3             dan (Danish)            0,040                   0                       0               0
00024.M2TS      4113 (0x1011)   0x1B            AVC                                     0,040                   0                       0               0
00024.M2TS      4352 (0x1100)   0x81            AC3             dan (Danish)            0,040                   0                       0               0
00025.M2TS      4113 (0x1011)   0x1B            AVC                                     0,040                   0                       0               0
00025.M2TS      4352 (0x1100)   0x81            AC3             dan (Danish)            0,040                   0                       0               0
00026.M2TS      4113 (0x1011)   0x1B            AVC                                     0,040                   0                       0               0
00026.M2TS      4352 (0x1100)   0x81            AC3             dan (Danish)            0,040                   0                       0               0
00027.M2TS      4113 (0x1011)   0x1B            AVC                                     0,040                   0                       0               0
00027.M2TS      4352 (0x1100)   0x81            AC3             dan (Danish)            0,040                   0                       0               0

<---- END FORUMS PASTE ---->
QUICK SUMMARY:
Disc Title: RONAL_BARBAREN_3D_BLUEBIRD
Disc Size: 24 561 797 608 bytes
Protection: AACS
BD-Java: No
Playlist: 00003.MPLS
Size: 0 bytes
Length: 0:19:36.360
Total Bitrate: 0,00 Mbps
Video: MPEG-4 AVC Video / 0 kbps / 1080i / 25 fps / 16:9 / High Profile 4.1
Audio: Danish / Dolby Digital Audio / 2.0 / 48 kHz / 448 kbps / DN -4dB
********************
PLAYLIST: 00023.MPLS
********************
<--- BEGIN FORUMS PASTE --->Код:
Код:
Total   Video
Title                                                           Codec   Length  Movie Size      Disc Size       Bitrate Bitrate Main Audio Track                          Secondary Audio Track
-----                                                           ------  ------- --------------  --------------  ------- ------- ------------------                        ---------------------
00023.MPLS                                                      AVC     0:03:53 0               24 561 797 608  0,00    0,00    DD AC3 2.0 448Kbps

Код:
Код:
DISC INFO:
Disc Title:     RONAL_BARBAREN_3D_BLUEBIRD
Disc Size:      24 561 797 608 bytes
Protection:     AACS
BD-Java:        No
Extras:         50Hz Content, Blu-ray 3D
BDInfo:         0.5.8
PLAYLIST REPORT:
Name:                   00023.MPLS
Length:                 0:03:53.960 (h:m:s.ms)
Size:                   0 bytes
Total Bitrate:          0,00 Mbps
VIDEO:
Codec                   Bitrate             Description
-----                   -------             -----------
MPEG-4 AVC Video        0 kbps              1080i / 25 fps / 16:9 / High Profile 4.1
AUDIO:
Codec                           Language        Bitrate         Description
-----                           --------        -------         -----------
Dolby Digital Audio             Danish          448 kbps        2.0 / 48 kHz / 448 kbps / DN -4dB
FILES:
Name            Time In         Length          Size            Total Bitrate
----            -------         ------          ----            -------------
00024.M2TS      0:00:00.000     0:03:53.960     0               0
CHAPTERS:
Number          Time In         Length          Avg Video Rate  Max 1-Sec Rate  Max 1-Sec Time  Max 5-Sec Rate  Max 5-Sec Time  Max 10Sec Rate  Max 10Sec Time  Avg Frame Size  Max Frame Size  Max Frame Time
------          -------         ------          --------------  --------------  --------------  --------------  --------------  --------------  --------------  --------------  --------------  --------------
1               0:00:00.000     0:03:53.960     0 kbps          0 kbps          00:00:00.000    0 kbps          00:00:00.000    0 kbps          00:00:00.000    0 bytes         0 bytes         00:00:00.000
STREAM DIAGNOSTICS:
File            PID             Type            Codec           Language                Seconds                 Bitrate                 Bytes           Packets
----            ---             ----            -----           --------                --------------          --------------          -------------   -----
00024.M2TS      4113 (0x1011)   0x1B            AVC                                     0,040                   0                       0               0
00024.M2TS      4352 (0x1100)   0x81            AC3             dan (Danish)            0,040                   0                       0               0

<---- END FORUMS PASTE ---->
QUICK SUMMARY:
Disc Title: RONAL_BARBAREN_3D_BLUEBIRD
Disc Size: 24 561 797 608 bytes
Protection: AACS
BD-Java: No
Playlist: 00023.MPLS
Size: 0 bytes
Length: 0:03:53.960
Total Bitrate: 0,00 Mbps
Video: MPEG-4 AVC Video / 0 kbps / 1080i / 25 fps / 16:9 / High Profile 4.1
Audio: Danish / Dolby Digital Audio / 2.0 / 48 kHz / 448 kbps / DN -4dB
********************
PLAYLIST: 00025.MPLS
********************
<--- BEGIN FORUMS PASTE --->Код:
Код:
Total   Video
Title                                                           Codec   Length  Movie Size      Disc Size       Bitrate Bitrate Main Audio Track                          Secondary Audio Track
-----                                                           ------  ------- --------------  --------------  ------- ------- ------------------                        ---------------------
00025.MPLS                                                      AVC     0:03:45 0               24 561 797 608  0,00    0,00    DD AC3 2.0 448Kbps

Код:
Код:
DISC INFO:
Disc Title:     RONAL_BARBAREN_3D_BLUEBIRD
Disc Size:      24 561 797 608 bytes
Protection:     AACS
BD-Java:        No
Extras:         50Hz Content, Blu-ray 3D
BDInfo:         0.5.8
PLAYLIST REPORT:
Name:                   00025.MPLS
Length:                 0:03:45.679 (h:m:s.ms)
Size:                   0 bytes
Total Bitrate:          0,00 Mbps
VIDEO:
Codec                   Bitrate             Description
-----                   -------             -----------
MPEG-4 AVC Video        0 kbps              1080i / 25 fps / 16:9 / High Profile 4.1
AUDIO:
Codec                           Language        Bitrate         Description
-----                           --------        -------         -----------
Dolby Digital Audio             Danish          448 kbps        2.0 / 48 kHz / 448 kbps / DN -4dB
FILES:
Name            Time In         Length          Size            Total Bitrate
----            -------         ------          ----            -------------
00026.M2TS      0:00:00.000     0:03:45.679     0               0
CHAPTERS:
Number          Time In         Length          Avg Video Rate  Max 1-Sec Rate  Max 1-Sec Time  Max 5-Sec Rate  Max 5-Sec Time  Max 10Sec Rate  Max 10Sec Time  Avg Frame Size  Max Frame Size  Max Frame Time
------          -------         ------          --------------  --------------  --------------  --------------  --------------  --------------  --------------  --------------  --------------  --------------
1               0:00:00.000     0:03:45.679     0 kbps          0 kbps          00:00:00.000    0 kbps          00:00:00.000    0 kbps          00:00:00.000    0 bytes         0 bytes         00:00:00.000
STREAM DIAGNOSTICS:
File            PID             Type            Codec           Language                Seconds                 Bitrate                 Bytes           Packets
----            ---             ----            -----           --------                --------------          --------------          -------------   -----
00026.M2TS      4113 (0x1011)   0x1B            AVC                                     0,040                   0                       0               0
00026.M2TS      4352 (0x1100)   0x81            AC3             dan (Danish)            0,040                   0                       0               0

<---- END FORUMS PASTE ---->
QUICK SUMMARY:
Disc Title: RONAL_BARBAREN_3D_BLUEBIRD
Disc Size: 24 561 797 608 bytes
Protection: AACS
BD-Java: No
Playlist: 00025.MPLS
Size: 0 bytes
Length: 0:03:45.679
Total Bitrate: 0,00 Mbps
Video: MPEG-4 AVC Video / 0 kbps / 1080i / 25 fps / 16:9 / High Profile 4.1
Audio: Danish / Dolby Digital Audio / 2.0 / 48 kHz / 448 kbps / DN -4dB
********************
PLAYLIST: 00020.MPLS
********************
<--- BEGIN FORUMS PASTE --->Код:
Код:
Total   Video
Title                                                           Codec   Length  Movie Size      Disc Size       Bitrate Bitrate Main Audio Track                          Secondary Audio Track
-----                                                           ------  ------- --------------  --------------  ------- ------- ------------------                        ---------------------
00020.MPLS                                                      AVC     0:03:02 0               24 561 797 608  0,00    0,00    DD AC3 2.0 448Kbps

Код:
Код:
DISC INFO:
Disc Title:     RONAL_BARBAREN_3D_BLUEBIRD
Disc Size:      24 561 797 608 bytes
Protection:     AACS
BD-Java:        No
Extras:         50Hz Content, Blu-ray 3D
BDInfo:         0.5.8
PLAYLIST REPORT:
Name:                   00020.MPLS
Length:                 0:03:02.000 (h:m:s.ms)
Size:                   0 bytes
Total Bitrate:          0,00 Mbps
VIDEO:
Codec                   Bitrate             Description
-----                   -------             -----------
MPEG-4 AVC Video        0 kbps              1080i / 25 fps / 16:9 / High Profile 4.1
AUDIO:
Codec                           Language        Bitrate         Description
-----                           --------        -------         -----------
Dolby Digital Audio             Danish          448 kbps        2.0 / 48 kHz / 448 kbps / DN -4dB
FILES:
Name            Time In         Length          Size            Total Bitrate
----            -------         ------          ----            -------------
00021.M2TS      0:00:00.000     0:03:02.000     0               0
CHAPTERS:
Number          Time In         Length          Avg Video Rate  Max 1-Sec Rate  Max 1-Sec Time  Max 5-Sec Rate  Max 5-Sec Time  Max 10Sec Rate  Max 10Sec Time  Avg Frame Size  Max Frame Size  Max Frame Time
------          -------         ------          --------------  --------------  --------------  --------------  --------------  --------------  --------------  --------------  --------------  --------------
1               0:00:00.000     0:03:02.000     0 kbps          0 kbps          00:00:00.000    0 kbps          00:00:00.000    0 kbps          00:00:00.000    0 bytes         0 bytes         00:00:00.000
STREAM DIAGNOSTICS:
File            PID             Type            Codec           Language                Seconds                 Bitrate                 Bytes           Packets
----            ---             ----            -----           --------                --------------          --------------          -------------   -----
00021.M2TS      4113 (0x1011)   0x1B            AVC                                     0,040                   0                       0               0
00021.M2TS      4352 (0x1100)   0x81            AC3             dan (Danish)            0,040                   0                       0               0

<---- END FORUMS PASTE ---->
QUICK SUMMARY:
Disc Title: RONAL_BARBAREN_3D_BLUEBIRD
Disc Size: 24 561 797 608 bytes
Protection: AACS
BD-Java: No
Playlist: 00020.MPLS
Size: 0 bytes
Length: 0:03:02.000
Total Bitrate: 0,00 Mbps
Video: MPEG-4 AVC Video / 0 kbps / 1080i / 25 fps / 16:9 / High Profile 4.1
Audio: Danish / Dolby Digital Audio / 2.0 / 48 kHz / 448 kbps / DN -4dB
********************
PLAYLIST: 00026.MPLS
********************
<--- BEGIN FORUMS PASTE --->Код:
Код:
Total   Video
Title                                                           Codec   Length  Movie Size      Disc Size       Bitrate Bitrate Main Audio Track                          Secondary Audio Track
-----                                                           ------  ------- --------------  --------------  ------- ------- ------------------                        ---------------------
00026.MPLS                                                      AVC     0:02:32 0               24 561 797 608  0,00    0,00    DD AC3 2.0 448Kbps

Код:
Код:
DISC INFO:
Disc Title:     RONAL_BARBAREN_3D_BLUEBIRD
Disc Size:      24 561 797 608 bytes
Protection:     AACS
BD-Java:        No
Extras:         50Hz Content, Blu-ray 3D
BDInfo:         0.5.8
PLAYLIST REPORT:
Name:                   00026.MPLS
Length:                 0:02:32.039 (h:m:s.ms)
Size:                   0 bytes
Total Bitrate:          0,00 Mbps
VIDEO:
Codec                   Bitrate             Description
-----                   -------             -----------
MPEG-4 AVC Video        0 kbps              1080i / 25 fps / 16:9 / High Profile 4.1
AUDIO:
Codec                           Language        Bitrate         Description
-----                           --------        -------         -----------
Dolby Digital Audio             Danish          448 kbps        2.0 / 48 kHz / 448 kbps / DN -4dB
FILES:
Name            Time In         Length          Size            Total Bitrate
----            -------         ------          ----            -------------
00027.M2TS      0:00:00.000     0:02:32.039     0               0
CHAPTERS:
Number          Time In         Length          Avg Video Rate  Max 1-Sec Rate  Max 1-Sec Time  Max 5-Sec Rate  Max 5-Sec Time  Max 10Sec Rate  Max 10Sec Time  Avg Frame Size  Max Frame Size  Max Frame Time
------          -------         ------          --------------  --------------  --------------  --------------  --------------  --------------  --------------  --------------  --------------  --------------
1               0:00:00.000     0:02:32.039     0 kbps          0 kbps          00:00:00.000    0 kbps          00:00:00.000    0 kbps          00:00:00.000    0 bytes         0 bytes         00:00:00.000
STREAM DIAGNOSTICS:
File            PID             Type            Codec           Language                Seconds                 Bitrate                 Bytes           Packets
----            ---             ----            -----           --------                --------------          --------------          -------------   -----
00027.M2TS      4113 (0x1011)   0x1B            AVC                                     0,040                   0                       0               0
00027.M2TS      4352 (0x1100)   0x81            AC3             dan (Danish)            0,040                   0                       0               0

<---- END FORUMS PASTE ---->
QUICK SUMMARY:
Disc Title: RONAL_BARBAREN_3D_BLUEBIRD
Disc Size: 24 561 797 608 bytes
Protection: AACS
BD-Java: No
Playlist: 00026.MPLS
Size: 0 bytes
Length: 0:02:32.039
Total Bitrate: 0,00 Mbps
Video: MPEG-4 AVC Video / 0 kbps / 1080i / 25 fps / 16:9 / High Profile 4.1
Audio: Danish / Dolby Digital Audio / 2.0 / 48 kHz / 448 kbps / DN -4dB
********************
PLAYLIST: 00021.MPLS
********************
<--- BEGIN FORUMS PASTE --->Код:
Код:
Total   Video
Title                                                           Codec   Length  Movie Size      Disc Size       Bitrate Bitrate Main Audio Track                          Secondary Audio Track
-----                                                           ------  ------- --------------  --------------  ------- ------- ------------------                        ---------------------
00021.MPLS                                                      AVC     0:02:21 0               24 561 797 608  0,00    0,00    DD AC3 2.0 448Kbps

Код:
Код:
DISC INFO:
Disc Title:     RONAL_BARBAREN_3D_BLUEBIRD
Disc Size:      24 561 797 608 bytes
Protection:     AACS
BD-Java:        No
Extras:         50Hz Content, Blu-ray 3D
BDInfo:         0.5.8
PLAYLIST REPORT:
Name:                   00021.MPLS
Length:                 0:02:21.720 (h:m:s.ms)
Size:                   0 bytes
Total Bitrate:          0,00 Mbps
VIDEO:
Codec                   Bitrate             Description
-----                   -------             -----------
MPEG-4 AVC Video        0 kbps              1080i / 25 fps / 16:9 / High Profile 4.1
AUDIO:
Codec                           Language        Bitrate         Description
-----                           --------        -------         -----------
Dolby Digital Audio             Danish          448 kbps        2.0 / 48 kHz / 448 kbps / DN -4dB
FILES:
Name            Time In         Length          Size            Total Bitrate
----            -------         ------          ----            -------------
00022.M2TS      0:00:00.000     0:02:21.720     0               0
CHAPTERS:
Number          Time In         Length          Avg Video Rate  Max 1-Sec Rate  Max 1-Sec Time  Max 5-Sec Rate  Max 5-Sec Time  Max 10Sec Rate  Max 10Sec Time  Avg Frame Size  Max Frame Size  Max Frame Time
------          -------         ------          --------------  --------------  --------------  --------------  --------------  --------------  --------------  --------------  --------------  --------------
1               0:00:00.000     0:02:21.720     0 kbps          0 kbps          00:00:00.000    0 kbps          00:00:00.000    0 kbps          00:00:00.000    0 bytes         0 bytes         00:00:00.000
STREAM DIAGNOSTICS:
File            PID             Type            Codec           Language                Seconds                 Bitrate                 Bytes           Packets
----            ---             ----            -----           --------                --------------          --------------          -------------   -----
00022.M2TS      4113 (0x1011)   0x1B            AVC                                     0                       0                       0               0
00022.M2TS      4352 (0x1100)   0x81            AC3             dan (Danish)            0                       0                       0               0

<---- END FORUMS PASTE ---->
QUICK SUMMARY:
Disc Title: RONAL_BARBAREN_3D_BLUEBIRD
Disc Size: 24 561 797 608 bytes
Protection: AACS
BD-Java: No
Playlist: 00021.MPLS
Size: 0 bytes
Length: 0:02:21.720
Total Bitrate: 0,00 Mbps
Video: MPEG-4 AVC Video / 0 kbps / 1080i / 25 fps / 16:9 / High Profile 4.1
Audio: Danish / Dolby Digital Audio / 2.0 / 48 kHz / 448 kbps / DN -4dB
********************
PLAYLIST: 00022.MPLS
********************
<--- BEGIN FORUMS PASTE --->Код:
Код:
Total   Video
Title                                                           Codec   Length  Movie Size      Disc Size       Bitrate Bitrate Main Audio Track                          Secondary Audio Track
-----                                                           ------  ------- --------------  --------------  ------- ------- ------------------                        ---------------------
00022.MPLS                                                      AVC     0:02:05 0               24 561 797 608  0,00    0,00    DD AC3 2.0 448Kbps

Код:
Код:
DISC INFO:
Disc Title:     RONAL_BARBAREN_3D_BLUEBIRD
Disc Size:      24 561 797 608 bytes
Protection:     AACS
BD-Java:        No
Extras:         50Hz Content, Blu-ray 3D
BDInfo:         0.5.8
PLAYLIST REPORT:
Name:                   00022.MPLS
Length:                 0:02:05.440 (h:m:s.ms)
Size:                   0 bytes
Total Bitrate:          0,00 Mbps
VIDEO:
Codec                   Bitrate             Description
-----                   -------             -----------
MPEG-4 AVC Video        0 kbps              1080i / 25 fps / 16:9 / High Profile 4.1
AUDIO:
Codec                           Language        Bitrate         Description
-----                           --------        -------         -----------
Dolby Digital Audio             Danish          448 kbps        2.0 / 48 kHz / 448 kbps / DN -4dB
FILES:
Name            Time In         Length          Size            Total Bitrate
----            -------         ------          ----            -------------
00023.M2TS      0:00:00.000     0:02:05.440     0               0
CHAPTERS:
Number          Time In         Length          Avg Video Rate  Max 1-Sec Rate  Max 1-Sec Time  Max 5-Sec Rate  Max 5-Sec Time  Max 10Sec Rate  Max 10Sec Time  Avg Frame Size  Max Frame Size  Max Frame Time
------          -------         ------          --------------  --------------  --------------  --------------  --------------  --------------  --------------  --------------  --------------  --------------
1               0:00:00.000     0:02:05.440     0 kbps          0 kbps          00:00:00.000    0 kbps          00:00:00.000    0 kbps          00:00:00.000    0 bytes         0 bytes         00:00:00.000
STREAM DIAGNOSTICS:
File            PID             Type            Codec           Language                Seconds                 Bitrate                 Bytes           Packets
----            ---             ----            -----           --------                --------------          --------------          -------------   -----
00023.M2TS      4113 (0x1011)   0x1B            AVC                                     0,040                   0                       0               0
00023.M2TS      4352 (0x1100)   0x81            AC3             dan (Danish)            0,040                   0                       0               0

<---- END FORUMS PASTE ---->
QUICK SUMMARY:
Disc Title: RONAL_BARBAREN_3D_BLUEBIRD
Disc Size: 24 561 797 608 bytes
Protection: AACS
BD-Java: No
Playlist: 00022.MPLS
Size: 0 bytes
Length: 0:02:05.440
Total Bitrate: 0,00 Mbps
Video: MPEG-4 AVC Video / 0 kbps / 1080i / 25 fps / 16:9 / High Profile 4.1
Audio: Danish / Dolby Digital Audio / 2.0 / 48 kHz / 448 kbps / DN -4dB
********************
PLAYLIST: 00024.MPLS
********************
<--- BEGIN FORUMS PASTE --->Код:
Код:
Total   Video
Title                                                           Codec   Length  Movie Size      Disc Size       Bitrate Bitrate Main Audio Track                          Secondary Audio Track
-----                                                           ------  ------- --------------  --------------  ------- ------- ------------------                        ---------------------
00024.MPLS                                                      AVC     0:01:55 0               24 561 797 608  0,00    0,00    DD AC3 2.0 448Kbps

Код:
Код:
DISC INFO:
Disc Title:     RONAL_BARBAREN_3D_BLUEBIRD
Disc Size:      24 561 797 608 bytes
Protection:     AACS
BD-Java:        No
Extras:         50Hz Content, Blu-ray 3D
BDInfo:         0.5.8
PLAYLIST REPORT:
Name:                   00024.MPLS
Length:                 0:01:55.519 (h:m:s.ms)
Size:                   0 bytes
Total Bitrate:          0,00 Mbps
VIDEO:
Codec                   Bitrate             Description
-----                   -------             -----------
MPEG-4 AVC Video        0 kbps              1080i / 25 fps / 16:9 / High Profile 4.1
AUDIO:
Codec                           Language        Bitrate         Description
-----                           --------        -------         -----------
Dolby Digital Audio             Danish          448 kbps        2.0 / 48 kHz / 448 kbps / DN -4dB
FILES:
Name            Time In         Length          Size            Total Bitrate
----            -------         ------          ----            -------------
00025.M2TS      0:00:00.000     0:01:55.519     0               0
CHAPTERS:
Number          Time In         Length          Avg Video Rate  Max 1-Sec Rate  Max 1-Sec Time  Max 5-Sec Rate  Max 5-Sec Time  Max 10Sec Rate  Max 10Sec Time  Avg Frame Size  Max Frame Size  Max Frame Time
------          -------         ------          --------------  --------------  --------------  --------------  --------------  --------------  --------------  --------------  --------------  --------------
1               0:00:00.000     0:01:55.519     0 kbps          0 kbps          00:00:00.000    0 kbps          00:00:00.000    0 kbps          00:00:00.000    0 bytes         0 bytes         00:00:00.000
STREAM DIAGNOSTICS:
File            PID             Type            Codec           Language                Seconds                 Bitrate                 Bytes           Packets
----            ---             ----            -----           --------                --------------          --------------          -------------   -----
00025.M2TS      4113 (0x1011)   0x1B            AVC                                     0,040                   0                       0               0
00025.M2TS      4352 (0x1100)   0x81            AC3             dan (Danish)            0,040                   0                       0               0

<---- END FORUMS PASTE ---->
QUICK SUMMARY:
Disc Title: RONAL_BARBAREN_3D_BLUEBIRD
Disc Size: 24 561 797 608 bytes
Protection: AACS
BD-Java: No
Playlist: 00024.MPLS
Size: 0 bytes
Length: 0:01:55.519
Total Bitrate: 0,00 Mbps
Video: MPEG-4 AVC Video / 0 kbps / 1080i / 25 fps / 16:9 / High Profile 4.1
Audio: Danish / Dolby Digital Audio / 2.0 / 48 kHz / 448 kbps / DN -4dB
********************
PLAYLIST: 00028.MPLS
********************
<--- BEGIN FORUMS PASTE --->Код:
Код:
Total   Video
Title                                                           Codec   Length  Movie Size      Disc Size       Bitrate Bitrate Main Audio Track                          Secondary Audio Track
-----                                                           ------  ------- --------------  --------------  ------- ------- ------------------                        ---------------------
00028.MPLS                                                      AVC     0:06:17 0               24 561 797 608  0,00    0,00    DD AC3 2.0 448Kbps

Код:
Код:
DISC INFO:
Disc Title:     RONAL_BARBAREN_3D_BLUEBIRD
Disc Size:      24 561 797 608 bytes
Protection:     AACS
BD-Java:        No
Extras:         50Hz Content, Blu-ray 3D
BDInfo:         0.5.8
PLAYLIST REPORT:
Name:                   00028.MPLS
Length:                 0:06:17.600 (h:m:s.ms)
Size:                   0 bytes
Total Bitrate:          0,00 Mbps
VIDEO:
Codec                   Bitrate             Description
-----                   -------             -----------
MPEG-4 AVC Video        0 kbps              1080i / 25 fps / 16:9 / High Profile 4.1
AUDIO:
Codec                           Language        Bitrate         Description
-----                           --------        -------         -----------
Dolby Digital Audio             Danish          448 kbps        2.0 / 48 kHz / 448 kbps / DN -4dB
FILES:
Name            Time In         Length          Size            Total Bitrate
----            -------         ------          ----            -------------
00029.M2TS      0:00:00.000     0:06:17.600     0               0
CHAPTERS:
Number          Time In         Length          Avg Video Rate  Max 1-Sec Rate  Max 1-Sec Time  Max 5-Sec Rate  Max 5-Sec Time  Max 10Sec Rate  Max 10Sec Time  Avg Frame Size  Max Frame Size  Max Frame Time
------          -------         ------          --------------  --------------  --------------  --------------  --------------  --------------  --------------  --------------  --------------  --------------
1               0:00:00.000     0:06:17.600     0 kbps          0 kbps          00:00:00.000    0 kbps          00:00:00.000    0 kbps          00:00:00.000    0 bytes         0 bytes         00:00:00.000
STREAM DIAGNOSTICS:
File            PID             Type            Codec           Language                Seconds                 Bitrate                 Bytes           Packets
----            ---             ----            -----           --------                --------------          --------------          -------------   -----
00029.M2TS      4113 (0x1011)   0x1B            AVC                                     0,040                   0                       0               0
00029.M2TS      4352 (0x1100)   0x81            AC3             dan (Danish)            0,040                   0                       0               0

<---- END FORUMS PASTE ---->
QUICK SUMMARY:
Disc Title: RONAL_BARBAREN_3D_BLUEBIRD
Disc Size: 24 561 797 608 bytes
Protection: AACS
BD-Java: No
Playlist: 00028.MPLS
Size: 0 bytes
Length: 0:06:17.600
Total Bitrate: 0,00 Mbps
Video: MPEG-4 AVC Video / 0 kbps / 1080i / 25 fps / 16:9 / High Profile 4.1
Audio: Danish / Dolby Digital Audio / 2.0 / 48 kHz / 448 kbps / DN -4dB
********************
PLAYLIST: 00001.MPLS
********************
<--- BEGIN FORUMS PASTE --->Код:
Код:
Total   Video
Title                                                           Codec   Length  Movie Size      Disc Size       Bitrate Bitrate Main Audio Track                          Secondary Audio Track
-----                                                           ------  ------- --------------  --------------  ------- ------- ------------------                        ---------------------
00001.MPLS                                                      AVC     0:02:26 0               24 561 797 608  0,00    0,00    DD AC3 2.0 448Kbps

Код:
Код:
DISC INFO:
Disc Title:     RONAL_BARBAREN_3D_BLUEBIRD
Disc Size:      24 561 797 608 bytes
Protection:     AACS
BD-Java:        No
Extras:         50Hz Content, Blu-ray 3D
BDInfo:         0.5.8
PLAYLIST REPORT:
Name:                   00001.MPLS
Length:                 0:02:26.480 (h:m:s.ms)
Size:                   0 bytes
Total Bitrate:          0,00 Mbps
VIDEO:
Codec                   Bitrate             Description
-----                   -------             -----------
MPEG-4 AVC Video        0 kbps              1080i / 25 fps / 16:9 / High Profile 4.1
AUDIO:
Codec                           Language        Bitrate         Description
-----                           --------        -------         -----------
Dolby Digital Audio             Danish          448 kbps        2.0 / 48 kHz / 448 kbps / DN -4dB
FILES:
Name            Time In         Length          Size            Total Bitrate
----            -------         ------          ----            -------------
00031.M2TS      0:00:00.000     0:02:26.480     0               0
CHAPTERS:
Number          Time In         Length          Avg Video Rate  Max 1-Sec Rate  Max 1-Sec Time  Max 5-Sec Rate  Max 5-Sec Time  Max 10Sec Rate  Max 10Sec Time  Avg Frame Size  Max Frame Size  Max Frame Time
------          -------         ------          --------------  --------------  --------------  --------------  --------------  --------------  --------------  --------------  --------------  --------------
1               0:00:00.000     0:02:26.480     0 kbps          0 kbps          00:00:00.000    0 kbps          00:00:00.000    0 kbps          00:00:00.000    0 bytes         0 bytes         00:00:00.000
STREAM DIAGNOSTICS:
File            PID             Type            Codec           Language                Seconds                 Bitrate                 Bytes           Packets
----            ---             ----            -----           --------                --------------          --------------          -------------   -----
00031.M2TS      4113 (0x1011)   0x1B            AVC                                     0,040                   0                       0               0
00031.M2TS      4352 (0x1100)   0x81            AC3             dan (Danish)            0,040                   0                       0               0

<---- END FORUMS PASTE ---->
QUICK SUMMARY:
Disc Title: RONAL_BARBAREN_3D_BLUEBIRD
Disc Size: 24 561 797 608 bytes
Protection: AACS
BD-Java: No
Playlist: 00001.MPLS
Size: 0 bytes
Length: 0:02:26.480
Total Bitrate: 0,00 Mbps
Video: MPEG-4 AVC Video / 0 kbps / 1080i / 25 fps / 16:9 / High Profile 4.1
Audio: Danish / Dolby Digital Audio / 2.0 / 48 kHz / 448 kbps / DN -4dB
********************
PLAYLIST: 00029.MPLS
********************
<--- BEGIN FORUMS PASTE --->Код:
Код:
Total   Video
Title                                                           Codec   Length  Movie Size      Disc Size       Bitrate Bitrate Main Audio Track                          Secondary Audio Track
-----                                                           ------  ------- --------------  --------------  ------- ------- ------------------                        ---------------------
00029.MPLS                                                      AVC     0:02:22 0               24 561 797 608  0,00    0,00    DD AC3 5.1 640Kbps

Код:
Код:
DISC INFO:
Disc Title:     RONAL_BARBAREN_3D_BLUEBIRD
Disc Size:      24 561 797 608 bytes
Protection:     AACS
BD-Java:        No
Extras:         50Hz Content, Blu-ray 3D
BDInfo:         0.5.8
PLAYLIST REPORT:
Name:                   00029.MPLS
Length:                 0:02:22.892 (h:m:s.ms)
Size:                   0 bytes
Total Bitrate:          0,00 Mbps
VIDEO:
Codec                   Bitrate             Description
-----                   -------             -----------
MPEG-4 AVC Video        0 kbps              1080p / 23,976 fps / 16:9 / High Profile 4.1
MPEG-4 MVC Video        0 kbps
AUDIO:
Codec                           Language        Bitrate         Description
-----                           --------        -------         -----------
Dolby Digital Audio             Danish          640 kbps        5.1 / 48 kHz / 640 kbps / DN -4dB
SUBTITLES:
Codec                           Language        Bitrate         Description
-----                           --------        -------         -----------
Presentation Graphics           Danish          0,000 kbps
Presentation Graphics           Norwegian       0,000 kbps
FILES:
Name            Time In         Length          Size            Total Bitrate
----            -------         ------          ----            -------------
00043.SSIF      0:00:00.000     0:02:22.892     0               0
CHAPTERS:
Number          Time In         Length          Avg Video Rate  Max 1-Sec Rate  Max 1-Sec Time  Max 5-Sec Rate  Max 5-Sec Time  Max 10Sec Rate  Max 10Sec Time  Avg Frame Size  Max Frame Size  Max Frame Time
------          -------         ------          --------------  --------------  --------------  --------------  --------------  --------------  --------------  --------------  --------------  --------------
1               0:00:00.000     0:02:22.892     0 kbps          0 kbps          00:00:00.000    0 kbps          00:00:00.000    0 kbps          00:00:00.000    0 bytes         0 bytes         00:00:00.000
STREAM DIAGNOSTICS:
File            PID             Type            Codec           Language                Seconds                 Bitrate                 Bytes           Packets
----            ---             ----            -----           --------                --------------          --------------          -------------   -----
00043.SSIF      4114 (0x1012)   0x20            MVC                                     9,384                   0                       0               0
00043.SSIF      4608 (0x1200)   0x90            PGS             dan (Danish)            9,384                   0                       0               0
00043.SSIF      4609 (0x1201)   0x90            PGS             nor (Norwegian)         9,384                   0                       0               0
00043.SSIF      4113 (0x1011)   0x1B            AVC                                     9,384                   0                       0               0
00043.SSIF      4352 (0x1100)   0x81            AC3             dan (Danish)            9,384                   0                       0               0

<---- END FORUMS PASTE ---->
QUICK SUMMARY:
Disc Title: RONAL_BARBAREN_3D_BLUEBIRD
Disc Size: 24 561 797 608 bytes
Protection: AACS
BD-Java: No
Playlist: 00029.MPLS
Size: 0 bytes
Length: 0:02:22.892
Total Bitrate: 0,00 Mbps
Video: MPEG-4 AVC Video / 0 kbps / 1080p / 23,976 fps / 16:9 / High Profile 4.1
Video: MPEG-4 MVC Video / 0 kbps /
Audio: Danish / Dolby Digital Audio / 5.1 / 48 kHz / 640 kbps / DN -4dB
Subtitle: Danish / 0,000 kbps
Subtitle: Norwegian / 0,000 kbps
********************
PLAYLIST: 00027.MPLS
********************
<--- BEGIN FORUMS PASTE --->Код:
Код:
Total   Video
Title                                                           Codec   Length  Movie Size      Disc Size       Bitrate Bitrate Main Audio Track                          Secondary Audio Track
-----                                                           ------  ------- --------------  --------------  ------- ------- ------------------                        ---------------------
00027.MPLS                                                      AVC     0:02:04 0               24 561 797 608  0,00    0,00    DD AC3 2.0 448Kbps

Код:
Код:
DISC INFO:
Disc Title:     RONAL_BARBAREN_3D_BLUEBIRD
Disc Size:      24 561 797 608 bytes
Protection:     AACS
BD-Java:        No
Extras:         50Hz Content, Blu-ray 3D
BDInfo:         0.5.8
PLAYLIST REPORT:
Name:                   00027.MPLS
Length:                 0:02:04.320 (h:m:s.ms)
Size:                   0 bytes
Total Bitrate:          0,00 Mbps
VIDEO:
Codec                   Bitrate             Description
-----                   -------             -----------
MPEG-4 AVC Video        0 kbps              1080i / 25 fps / 16:9 / High Profile 4.1
AUDIO:
Codec                           Language        Bitrate         Description
-----                           --------        -------         -----------
Dolby Digital Audio             Danish          448 kbps        2.0 / 48 kHz / 448 kbps / DN -4dB
FILES:
Name            Time In         Length          Size            Total Bitrate
----            -------         ------          ----            -------------
00028.M2TS      0:00:00.000     0:02:04.320     0               0
CHAPTERS:
Number          Time In         Length          Avg Video Rate  Max 1-Sec Rate  Max 1-Sec Time  Max 5-Sec Rate  Max 5-Sec Time  Max 10Sec Rate  Max 10Sec Time  Avg Frame Size  Max Frame Size  Max Frame Time
------          -------         ------          --------------  --------------  --------------  --------------  --------------  --------------  --------------  --------------  --------------  --------------
1               0:00:00.000     0:02:04.320     0 kbps          0 kbps          00:00:00.000    0 kbps          00:00:00.000    0 kbps          00:00:00.000    0 bytes         0 bytes         00:00:00.000
STREAM DIAGNOSTICS:
File            PID             Type            Codec           Language                Seconds                 Bitrate                 Bytes           Packets
----            ---             ----            -----           --------                --------------          --------------          -------------   -----
00028.M2TS      4113 (0x1011)   0x1B            AVC                                     0                       0                       0               0
00028.M2TS      4352 (0x1100)   0x81            AC3             dan (Danish)            0                       0                       0               0

<---- END FORUMS PASTE ---->
QUICK SUMMARY:
Disc Title: RONAL_BARBAREN_3D_BLUEBIRD
Disc Size: 24 561 797 608 bytes
Protection: AACS
BD-Java: No
Playlist: 00027.MPLS
Size: 0 bytes
Length: 0:02:04.320
Total Bitrate: 0,00 Mbps
Video: MPEG-4 AVC Video / 0 kbps / 1080i / 25 fps / 16:9 / High Profile 4.1
Audio: Danish / Dolby Digital Audio / 2.0 / 48 kHz / 448 kbps / DN -4dB
********************
PLAYLIST: 00004.MPLS
********************
<--- BEGIN FORUMS PASTE --->Код:
Код:
Total   Video
Title                                                           Codec   Length  Movie Size      Disc Size       Bitrate Bitrate Main Audio Track                          Secondary Audio Track
-----                                                           ------  ------- --------------  --------------  ------- ------- ------------------                        ---------------------
00004.MPLS                                                      AVC     0:01:38 0               24 561 797 608  0,00    0,00    DD AC3 5.1 640Kbps

Код:
Код:
DISC INFO:
Disc Title:     RONAL_BARBAREN_3D_BLUEBIRD
Disc Size:      24 561 797 608 bytes
Protection:     AACS
BD-Java:        No
Extras:         50Hz Content, Blu-ray 3D
BDInfo:         0.5.8
PLAYLIST REPORT:
Name:                   00004.MPLS
Length:                 0:01:38.056 (h:m:s.ms)
Size:                   0 bytes
Total Bitrate:          0,00 Mbps
VIDEO:
Codec                   Bitrate             Description
-----                   -------             -----------
MPEG-4 AVC Video        0 kbps              1080p / 23,976 fps / 16:9 / High Profile 4.1
MPEG-4 MVC Video        0 kbps
AUDIO:
Codec                           Language        Bitrate         Description
-----                           --------        -------         -----------
Dolby Digital Audio             Danish          640 kbps        5.1 / 48 kHz / 640 kbps / DN -4dB
SUBTITLES:
Codec                           Language        Bitrate         Description
-----                           --------        -------         -----------
Presentation Graphics           Danish          0,000 kbps
Presentation Graphics           Norwegian       0,000 kbps
FILES:
Name            Time In         Length          Size            Total Bitrate
----            -------         ------          ----            -------------
00041.SSIF      0:00:00.000     0:01:38.056     0               0
CHAPTERS:
Number          Time In         Length          Avg Video Rate  Max 1-Sec Rate  Max 1-Sec Time  Max 5-Sec Rate  Max 5-Sec Time  Max 10Sec Rate  Max 10Sec Time  Avg Frame Size  Max Frame Size  Max Frame Time
------          -------         ------          --------------  --------------  --------------  --------------  --------------  --------------  --------------  --------------  --------------  --------------
1               0:00:00.000     0:01:38.056     0 kbps          0 kbps          00:00:00.000    0 kbps          00:00:00.000    0 kbps          00:00:00.000    0 bytes         0 bytes         00:00:00.000
STREAM DIAGNOSTICS:
File            PID             Type            Codec           Language                Seconds                 Bitrate                 Bytes           Packets
----            ---             ----            -----           --------                --------------          --------------          -------------   -----
00041.SSIF      4114 (0x1012)   0x20            MVC                                     15,891                  0                       0               0
00041.SSIF      4608 (0x1200)   0x90            PGS             dan (Danish)            15,891                  0                       0               0
00041.SSIF      4609 (0x1201)   0x90            PGS             nor (Norwegian)         15,891                  0                       0               0
00041.SSIF      4113 (0x1011)   0x1B            AVC                                     15,891                  0                       0               0
00041.SSIF      4352 (0x1100)   0x81            AC3             dan (Danish)            15,891                  0                       0               0

<---- END FORUMS PASTE ---->
QUICK SUMMARY:
Disc Title: RONAL_BARBAREN_3D_BLUEBIRD
Disc Size: 24 561 797 608 bytes
Protection: AACS
BD-Java: No
Playlist: 00004.MPLS
Size: 0 bytes
Length: 0:01:38.056
Total Bitrate: 0,00 Mbps
Video: MPEG-4 AVC Video / 0 kbps / 1080p / 23,976 fps / 16:9 / High Profile 4.1
Video: MPEG-4 MVC Video / 0 kbps /
Audio: Danish / Dolby Digital Audio / 5.1 / 48 kHz / 640 kbps / DN -4dB
Subtitle: Danish / 0,000 kbps
Subtitle: Norwegian / 0,000 kbps
********************
PLAYLIST: 00000.MPLS
********************
<--- BEGIN FORUMS PASTE --->Код:
Код:
Total   Video
Title                                                           Codec   Length  Movie Size      Disc Size       Bitrate Bitrate Main Audio Track                          Secondary Audio Track
-----                                                           ------  ------- --------------  --------------  ------- ------- ------------------                        ---------------------
00000.MPLS                                                      AVC     0:01:00 0               24 561 797 608  0,00    0,00    DD AC3 5.1 640Kbps

Код:
Код:
DISC INFO:
Disc Title:     RONAL_BARBAREN_3D_BLUEBIRD
Disc Size:      24 561 797 608 bytes
Protection:     AACS
BD-Java:        No
Extras:         50Hz Content, Blu-ray 3D
BDInfo:         0.5.8
PLAYLIST REPORT:
Name:                   00000.MPLS
Length:                 0:01:00.310 (h:m:s.ms)
Size:                   0 bytes
Total Bitrate:          0,00 Mbps
VIDEO:
Codec                   Bitrate             Description
-----                   -------             -----------
MPEG-4 AVC Video        0 kbps              1080p / 23,976 fps / 16:9 / High Profile 4.1
AUDIO:
Codec                           Language        Bitrate         Description
-----                           --------        -------         -----------
Dolby Digital Audio             English         640 kbps        5.1 / 48 kHz / 640 kbps / DN -4dB
FILES:
Name            Time In         Length          Size            Total Bitrate
----            -------         ------          ----            -------------
00000.M2TS      0:00:00.000     0:01:00.310     0               0
CHAPTERS:
Number          Time In         Length          Avg Video Rate  Max 1-Sec Rate  Max 1-Sec Time  Max 5-Sec Rate  Max 5-Sec Time  Max 10Sec Rate  Max 10Sec Time  Avg Frame Size  Max Frame Size  Max Frame Time
------          -------         ------          --------------  --------------  --------------  --------------  --------------  --------------  --------------  --------------  --------------  --------------
1               0:00:00.000     0:01:00.310     0 kbps          0 kbps          00:00:00.000    0 kbps          00:00:00.000    0 kbps          00:00:00.000    0 bytes         0 bytes         00:00:00.000
STREAM DIAGNOSTICS:
File            PID             Type            Codec           Language                Seconds                 Bitrate                 Bytes           Packets
----            ---             ----            -----           --------                --------------          --------------          -------------   -----
00000.M2TS      4113 (0x1011)   0x1B            AVC                                     0                       0                       0               0
00000.M2TS      4352 (0x1100)   0x81            AC3             eng (English)           0                       0                       0               0

<---- END FORUMS PASTE ---->
QUICK SUMMARY:
Disc Title: RONAL_BARBAREN_3D_BLUEBIRD
Disc Size: 24 561 797 608 bytes
Protection: AACS
BD-Java: No
Playlist: 00000.MPLS
Size: 0 bytes
Length: 0:01:00.310
Total Bitrate: 0,00 Mbps
Video: MPEG-4 AVC Video / 0 kbps / 1080p / 23,976 fps / 16:9 / High Profile 4.1
Audio: English / Dolby Digital Audio / 5.1 / 48 kHz / 640 kbps / DN -4dB
********************
PLAYLIST: 00031.MPLS
********************
<--- BEGIN FORUMS PASTE --->Код:
Код:
Total   Video
Title                                                           Codec   Length  Movie Size      Disc Size       Bitrate Bitrate Main Audio Track                          Secondary Audio Track
-----                                                           ------  ------- --------------  --------------  ------- ------- ------------------                        ---------------------
00031.MPLS                                                      AVC     0:00:30 0               24 561 797 608  0,00    0,00    DD AC3 2.0 448Kbps

Код:
Код:
DISC INFO:
Disc Title:     RONAL_BARBAREN_3D_BLUEBIRD
Disc Size:      24 561 797 608 bytes
Protection:     AACS
BD-Java:        No
Extras:         50Hz Content, Blu-ray 3D
BDInfo:         0.5.8
PLAYLIST REPORT:
Name:                   00031.MPLS
Length:                 0:00:30.000 (h:m:s.ms)
Size:                   0 bytes
Total Bitrate:          0,00 Mbps
VIDEO:
Codec                   Bitrate             Description
-----                   -------             -----------
MPEG-4 AVC Video        0 kbps              1080i / 25 fps / 16:9 / High Profile 4.1
AUDIO:
Codec                           Language        Bitrate         Description
-----                           --------        -------         -----------
Dolby Digital Audio             Danish          448 kbps        2.0 / 48 kHz / 448 kbps / DN -4dB
FILES:
Name            Time In         Length          Size            Total Bitrate
----            -------         ------          ----            -------------
00038.M2TS      0:00:00.000     0:00:30.000     0               0
CHAPTERS:
Number          Time In         Length          Avg Video Rate  Max 1-Sec Rate  Max 1-Sec Time  Max 5-Sec Rate  Max 5-Sec Time  Max 10Sec Rate  Max 10Sec Time  Avg Frame Size  Max Frame Size  Max Frame Time
------          -------         ------          --------------  --------------  --------------  --------------  --------------  --------------  --------------  --------------  --------------  --------------
1               0:00:00.000     0:00:30.000     0 kbps          0 kbps          00:00:00.000    0 kbps          00:00:00.000    0 kbps          00:00:00.000    0 bytes         0 bytes         00:00:00.000
STREAM DIAGNOSTICS:
File            PID             Type            Codec           Language                Seconds                 Bitrate                 Bytes           Packets
----            ---             ----            -----           --------                --------------          --------------          -------------   -----
00038.M2TS      4113 (0x1011)   0x1B            AVC                                     0,040                   0                       0               0
00038.M2TS      4352 (0x1100)   0x81            AC3             dan (Danish)            0,040                   0                       0               0

<---- END FORUMS PASTE ---->
QUICK SUMMARY:
Disc Title: RONAL_BARBAREN_3D_BLUEBIRD
Disc Size: 24 561 797 608 bytes
Protection: AACS
BD-Java: No
Playlist: 00031.MPLS
Size: 0 bytes
Length: 0:00:30.000
Total Bitrate: 0,00 Mbps
Video: MPEG-4 AVC Video / 0 kbps / 1080i / 25 fps / 16:9 / High Profile 4.1
Audio: Danish / Dolby Digital Audio / 2.0 / 48 kHz / 448 kbps / DN -4dB
********************
PLAYLIST: 00030.MPLS
********************
<--- BEGIN FORUMS PASTE --->Код:
Код:
Total   Video
Title                                                           Codec   Length  Movie Size      Disc Size       Bitrate Bitrate Main Audio Track                          Secondary Audio Track
-----                                                           ------  ------- --------------  --------------  ------- ------- ------------------                        ---------------------
00030.MPLS                                                      AVC     0:00:25 0               24 561 797 608  0,00    0,00    DD AC3 2.0 448Kbps

Код:
Код:
DISC INFO:
Disc Title:     RONAL_BARBAREN_3D_BLUEBIRD
Disc Size:      24 561 797 608 bytes
Protection:     AACS
BD-Java:        No
Extras:         50Hz Content, Blu-ray 3D
BDInfo:         0.5.8
PLAYLIST REPORT:
Name:                   00030.MPLS
Length:                 0:00:25.000 (h:m:s.ms)
Size:                   0 bytes
Total Bitrate:          0,00 Mbps
VIDEO:
Codec                   Bitrate             Description
-----                   -------             -----------
MPEG-4 AVC Video        0 kbps              1080i / 25 fps / 16:9 / High Profile 4.1
AUDIO:
Codec                           Language        Bitrate         Description
-----                           --------        -------         -----------
Dolby Digital Audio             Danish          448 kbps        2.0 / 48 kHz / 448 kbps / DN -4dB
FILES:
Name            Time In         Length          Size            Total Bitrate
----            -------         ------          ----            -------------
00040.M2TS      0:00:00.000     0:00:25.000     0               0
CHAPTERS:
Number          Time In         Length          Avg Video Rate  Max 1-Sec Rate  Max 1-Sec Time  Max 5-Sec Rate  Max 5-Sec Time  Max 10Sec Rate  Max 10Sec Time  Avg Frame Size  Max Frame Size  Max Frame Time
------          -------         ------          --------------  --------------  --------------  --------------  --------------  --------------  --------------  --------------  --------------  --------------
1               0:00:00.000     0:00:25.000     0 kbps          0 kbps          00:00:00.000    0 kbps          00:00:00.000    0 kbps          00:00:00.000    0 bytes         0 bytes         00:00:00.000
STREAM DIAGNOSTICS:
File            PID             Type            Codec           Language                Seconds                 Bitrate                 Bytes           Packets
----            ---             ----            -----           --------                --------------          --------------          -------------   -----
00040.M2TS      4113 (0x1011)   0x1B            AVC                                     0,040                   0                       0               0
00040.M2TS      4352 (0x1100)   0x81            AC3             dan (Danish)            0,040                   0                       0               0

<---- END FORUMS PASTE ---->
QUICK SUMMARY:
Disc Title: RONAL_BARBAREN_3D_BLUEBIRD
Disc Size: 24 561 797 608 bytes
Protection: AACS
BD-Java: No
Playlist: 00030.MPLS
Size: 0 bytes
Length: 0:00:25.000
Total Bitrate: 0,00 Mbps
Video: MPEG-4 AVC Video / 0 kbps / 1080i / 25 fps / 16:9 / High Profile 4.1
Audio: Danish / Dolby Digital Audio / 2.0 / 48 kHz / 448 kbps / DN -4dB
********************
PLAYLIST: 00032.MPLS
********************
<--- BEGIN FORUMS PASTE --->Код:
Код:
Total   Video
Title                                                           Codec   Length  Movie Size      Disc Size       Bitrate Bitrate Main Audio Track                          Secondary Audio Track
-----                                                           ------  ------- --------------  --------------  ------- ------- ------------------                        ---------------------
00032.MPLS                                                      AVC     0:00:24 0               24 561 797 608  0,00    0,00    DD AC3 2.0 448Kbps

Код:
Код:
DISC INFO:
Disc Title:     RONAL_BARBAREN_3D_BLUEBIRD
Disc Size:      24 561 797 608 bytes
Protection:     AACS
BD-Java:        No
Extras:         50Hz Content, Blu-ray 3D
BDInfo:         0.5.8
PLAYLIST REPORT:
Name:                   00032.MPLS
Length:                 0:00:24.480 (h:m:s.ms)
Size:                   0 bytes
Total Bitrate:          0,00 Mbps
VIDEO:
Codec                   Bitrate             Description
-----                   -------             -----------
MPEG-4 AVC Video        0 kbps              1080i / 25 fps / 16:9 / High Profile 4.1
AUDIO:
Codec                           Language        Bitrate         Description
-----                           --------        -------         -----------
Dolby Digital Audio             Danish          448 kbps        2.0 / 48 kHz / 448 kbps / DN -4dB
FILES:
Name            Time In         Length          Size            Total Bitrate
----            -------         ------          ----            -------------
00039.M2TS      0:00:00.000     0:00:24.480     0               0
CHAPTERS:
Number          Time In         Length          Avg Video Rate  Max 1-Sec Rate  Max 1-Sec Time  Max 5-Sec Rate  Max 5-Sec Time  Max 10Sec Rate  Max 10Sec Time  Avg Frame Size  Max Frame Size  Max Frame Time
------          -------         ------          --------------  --------------  --------------  --------------  --------------  --------------  --------------  --------------  --------------  --------------
1               0:00:00.000     0:00:24.480     0 kbps          0 kbps          00:00:00.000    0 kbps          00:00:00.000    0 kbps          00:00:00.000    0 bytes         0 bytes         00:00:00.000
STREAM DIAGNOSTICS:
File            PID             Type            Codec           Language                Seconds                 Bitrate                 Bytes           Packets
----            ---             ----            -----           --------                --------------          --------------          -------------   -----
00039.M2TS      4113 (0x1011)   0x1B            AVC                                     0,040                   0                       0               0
00039.M2TS      4352 (0x1100)   0x81            AC3             dan (Danish)            0,040                   0                       0               0

<---- END FORUMS PASTE ---->
QUICK SUMMARY:
Disc Title: RONAL_BARBAREN_3D_BLUEBIRD
Disc Size: 24 561 797 608 bytes
Protection: AACS
BD-Java: No
Playlist: 00032.MPLS
Size: 0 bytes
Length: 0:00:24.480
Total Bitrate: 0,00 Mbps
Video: MPEG-4 AVC Video / 0 kbps / 1080i / 25 fps / 16:9 / High Profile 4.1
Audio: Danish / Dolby Digital Audio / 2.0 / 48 kHz / 448 kbps / DN -4dB
Скриншоты меню
Скриншоты



Вернуться к началу
 Профиль Отправить личное сообщение  
 
   Похожие торренты   Автор   Торрент   Размер 
В этой теме нет новых непрочитанных сообщений. Приключения олененка Рудольфа / Rudolph, the Red-Nosed Reindeer [мультфильм, мюзикл, фэнтези, приключения, семейный, 1964] BDRip 1080p, Mvo

salma3

7 | 4

3.62 ГБ

В этой теме нет новых непрочитанных сообщений. Большой и дружелюбный великан / The BFG [Мультфильм, фэнтези, приключения, 1989] BDRemux 1080p, Avo

salma3

6 | 15

21.65 ГБ

В этой теме нет новых непрочитанных сообщений. Савва. Сердце воина (Максим Фадеев) [мультфильм, приключения, фэнтези, 2015] WEB-DL 1080p

Dracon

4703 | 342

3.2 ГБ

В этой теме нет новых непрочитанных сообщений. Онигири / Onigiri [01-13 из 13] ( мультфильм, фэнтези, боевик, комедия, приключения, 2016) BDRemux 1080p | Sub

marya111

46 | 37

12.27 ГБ

В этой теме нет новых непрочитанных сообщений. Головоломка / Inside Out (Пит Доктер, Роналдо Дель Кармен) [Мультфильм, комедия, полнометражный, 2015] Blu-ray Disc CEE 1080p, Dub+Sub [3D-Video | лицензия]

Dracon

53 | 74

43.74 ГБ

В этой теме нет новых непрочитанных сообщений. Снежная королева 3. Огонь и лед [Мультфильм, фэнтези, приключения, семейный, полнометражный, 2016] WEB-DL 1080p [iTunes]

salma3

5306 | 728

3.06 ГБ

В этой теме нет новых непрочитанных сообщений. Аисты / Storks [мультфильм, фэнтези, комедия, приключения, семейный, 2016] BDRip 1080p, Dub [Лицензия]

salma3

59 | 14

8.86 ГБ


Начать новую тему Ответить на тему  [ 1 сообщение ] 




Для Мосгорсуда, Роскомнадзора и рекламодателей:: mosgorsud-torrent[собачка]yandex.ru
cron