Торрент файл
скачать торрент магнет ссылка Добавлен: 14 сен 2012, 00:50
Размер: 28.51 ГБ
Сидеров: 4
Личеров: 4
Автор

СообщениеДобавлено: 14 сен 2012, 00:50 

Не в сети
Аватара пользователя
Дата регистрации:
28 ноя 2010, 22:22
Спасибо: 722 / 5
Сообщения: 2030
Смешарики. Начало 3D / 3Д
Год выпуска: 2011
Страна: Россия
Жанр: Мультфильм, приключения, детский
Продолжительность: 01:27:13
Перевод: Не требуется
Русские субтитры: нет
Режиссер: Денис Чернов
Описание: Таакую экстремальную историю про Смешариков вы не могли себе представить: покинув свою уютную страну, Смешарики оказываются в современном мегаполисе в роли супергероев! Зачем? Они приняли очень важное для себя решение — спасти мир от нависшей угрозы. Этот «ответственный» шаг приводит к самому захватывающему приключению в их жизни!Такую экстремальную историю про Смешариков вы не могли себе представить: покинув свою уютную страну, Смешарики оказываются в современном мегаполисе в роли супергероев! Зачем? Они приняли очень важное для себя решение — спасти мир от нависшей угрозы. Этот «ответственный» шаг приводит к самому захватывающему приключению в их жизни!
Доп. материалы:
1) Игры: "Пазл" и "найди отличия";
2) мультфильмы: "Чемпион", "Электричество", "Железная дорога" и "Египет";
3) фильм о сереале "Смешарики" и фильм о фильме "Смешарики. Начало".
Сэмпл
Качество: Blu-Ray Disc 1080р
Контейнер: BDAV
Формат 3D: Blu-ray 3D
Видео кодек: MVC
Аудио кодек: DTS-HD
Видео: MPEG-4 AVC Video 21169 kbps 1080p / 23,976 fps / 16:9 / High Profile 4.1 MPEG-4 MVC Video 9245 kbps
Аудио: DTS-HD Master Audio Russian 2472 kbps 5.1 / 48 kHz / 2472 kbps / 16-bit (DTS Core: 5.1 / 48 kHz / 1509 kbps / 16-bit)
Субтитры: Отсутствуют
BDInfo
Disc Title: Смешарики Начало 3D (Blu-ray) [rutracker.org]
Disc Size: 30 602 060 772 bytes
Protection: AACS
BD-Java: No
Extras: Blu-ray 3D
BDInfo: 0.5.8
Notes:
BDINFO HOME:
Cinema Squid
http://www.cinemasquid.com/blu-ray/tools/bdinfo
INCLUDES FORUMS REPORT FOR:
AVS Forum Blu-ray Audio and Video Specifications Thread
http://www.avsforum.com/avs-vb/showthread.php?t=1155731
********************
PLAYLIST: 00004.MPLS
********************
<--- BEGIN FORUMS PASTE --->Код:
Код:
Total   Video
Title                                                           Codec   Length  Movie Size      Disc Size       Bitrate Bitrate Main Audio Track                          Secondary Audio Track
-----                                                           ------  ------- --------------  --------------  ------- ------- ------------------                        ---------------------
00004.MPLS                                                      AVC     1:30:56 23 680 634 880  30 602 060 772  34,72   21,17   DTS-HD Master 5.1 2472Kbps (48kHz/16-bit)

Код:
Код:
DISC INFO:
Disc Title:     Смешарики Начало 3D (Blu-ray) [rutracker.org]
Disc Size:      30 602 060 772 bytes
Protection:     AACS
BD-Java:        No
Extras:         Blu-ray 3D
BDInfo:         0.5.8
PLAYLIST REPORT:
Name:                   00004.MPLS
Length:                 1:30:56.451 (h:m:s.ms)
Size:                   23 680 634 880 bytes
Total Bitrate:          34,72 Mbps
VIDEO:
Codec                   Bitrate             Description
-----                   -------             -----------
MPEG-4 AVC Video        21169 kbps          1080p / 23,976 fps / 16:9 / High Profile 4.1
MPEG-4 MVC Video        9245 kbps
AUDIO:
Codec                           Language        Bitrate         Description
-----                           --------        -------         -----------
DTS-HD Master Audio             Russian         2472 kbps       5.1 / 48 kHz / 2472 kbps / 16-bit (DTS Core: 5.1 / 48 kHz / 1509 kbps / 16-bit)
FILES:
Name            Time In         Length          Size            Total Bitrate
----            -------         ------          ----            -------------
00056.SSIF      0:00:00.000     1:30:56.451     23 680 634 880  34 719
CHAPTERS:
Number          Time In         Length          Avg Video Rate  Max 1-Sec Rate  Max 1-Sec Time  Max 5-Sec Rate  Max 5-Sec Time  Max 10Sec Rate  Max 10Sec Time  Avg Frame Size  Max Frame Size  Max Frame Time
------          -------         ------          --------------  --------------  --------------  --------------  --------------  --------------  --------------  --------------  --------------  --------------
1               0:00:00.000     0:13:21.717     22 649 kbps     48 243 kbps     00:01:54.197    38 627 kbps     00:00:32.532    33 469 kbps     00:00:31.906    118 073 bytes   822 561 bytes   00:02:40.577
2               0:13:21.717     0:20:45.285     22 043 kbps     60 944 kbps     00:20:29.519    37 879 kbps     00:30:20.485    33 574 kbps     00:23:42.963    114 924 bytes   696 297 bytes   00:30:20.652
3               0:34:07.003     0:19:39.219     19 564 kbps     46 902 kbps     00:36:14.297    37 143 kbps     00:52:49.583    32 989 kbps     00:34:25.855    101 997 bytes   904 020 bytes   00:53:31.583
4               0:53:46.223     0:18:48.168     19 161 kbps     55 986 kbps     01:10:52.039    38 174 kbps     01:05:06.611    34 856 kbps     01:11:45.467    99 897 bytes    862 824 bytes   01:00:27.373
5               1:12:34.391     0:18:22.059     22 875 kbps     46 044 kbps     01:24:15.467    37 103 kbps     01:14:27.463    35 029 kbps     01:30:35.179    119 267 bytes   834 203 bytes   01:22:28.401
STREAM DIAGNOSTICS:
File            PID             Type            Codec           Language                Seconds                 Bitrate                 Bytes           Packets
----            ---             ----            -----           --------                --------------          --------------          -------------   -----
00056.SSIF      4114 (0x1012)   0x20            MVC                                     5456,368                9 245                   6 305 780 182   34 352 893
00056.SSIF      4113 (0x1011)   0x1B            AVC                                     5456,368                21 169                  14 438 145 602  78 544 516
00056.SSIF      4352 (0x1100)   0x86            DTS-HD MA       rus (Russian)           5456,368                2 472                   1 686 339 424   10 012 983

<---- END FORUMS PASTE ---->
QUICK SUMMARY:
Disc Title: Смешарики Начало 3D (Blu-ray) [rutracker.org]
Disc Size: 30 602 060 772 bytes
Protection: AACS
BD-Java: No
Playlist: 00004.MPLS
Size: 23 680 634 880 bytes
Length: 1:30:56.451
Total Bitrate: 34,72 Mbps
Video: MPEG-4 AVC Video / 21169 kbps / 1080p / 23,976 fps / 16:9 / High Profile 4.1
Video: MPEG-4 MVC Video / 9245 kbps /
Audio: Russian / DTS-HD Master Audio / 5.1 / 48 kHz / 2472 kbps / 16-bit (DTS Core: 5.1 / 48 kHz / 1509 kbps / 16-bit)
********************
PLAYLIST: 00005.MPLS
********************
<--- BEGIN FORUMS PASTE --->Код:
Код:
Total   Video
Title                                                           Codec   Length  Movie Size      Disc Size       Bitrate Bitrate Main Audio Track                          Secondary Audio Track
-----                                                           ------  ------- --------------  --------------  ------- ------- ------------------                        ---------------------
00005.MPLS                                                      AVC     0:24:12 3 843 895 296   30 602 060 772  21,17   19,99   DD AC3 2.0 192Kbps

Код:
Код:
DISC INFO:
Disc Title:     Смешарики Начало 3D (Blu-ray) [rutracker.org]
Disc Size:      30 602 060 772 bytes
Protection:     AACS
BD-Java:        No
Extras:         Blu-ray 3D
BDInfo:         0.5.8
PLAYLIST REPORT:
Name:                   00005.MPLS
Length:                 0:24:12.451 (h:m:s.ms)
Size:                   3 843 895 296 bytes
Total Bitrate:          21,17 Mbps
VIDEO:
Codec                   Bitrate             Description
-----                   -------             -----------
MPEG-4 AVC Video        19990 kbps          1080p / 23,976 fps / 16:9 / High Profile 4.1
AUDIO:
Codec                           Language        Bitrate         Description
-----                           --------        -------         -----------
Dolby Digital Audio             Russian         192 kbps        2.0 / 48 kHz / 192 kbps
FILES:
Name            Time In         Length          Size            Total Bitrate
----            -------         ------          ----            -------------
00022.M2TS      0:00:00.000     0:24:12.451     3 843 895 296   21 172
CHAPTERS:
Number          Time In         Length          Avg Video Rate  Max 1-Sec Rate  Max 1-Sec Time  Max 5-Sec Rate  Max 5-Sec Time  Max 10Sec Rate  Max 10Sec Time  Avg Frame Size  Max Frame Size  Max Frame Time
------          -------         ------          --------------  --------------  --------------  --------------  --------------  --------------  --------------  --------------  --------------  --------------
1               0:00:00.000     0:24:12.451     19 990 kbps     47 053 kbps     00:10:28.919    41 524 kbps     00:10:26.876    38 671 kbps     00:14:15.938    104 218 bytes   373 348 bytes   00:18:52.214
STREAM DIAGNOSTICS:
File            PID             Type            Codec           Language                Seconds                 Bitrate                 Bytes           Packets
----            ---             ----            -----           --------                --------------          --------------          -------------   -----
00022.M2TS      4113 (0x1011)   0x1B            AVC                                     1452,368                19 991                  3 629 286 991   19 744 675
00022.M2TS      4352 (0x1100)   0x81            AC3             rus (Russian)           1452,368                192                     34 858 752      226 945

<---- END FORUMS PASTE ---->
QUICK SUMMARY:
Disc Title: Смешарики Начало 3D (Blu-ray) [rutracker.org]
Disc Size: 30 602 060 772 bytes
Protection: AACS
BD-Java: No
Playlist: 00005.MPLS
Size: 3 843 895 296 bytes
Length: 0:24:12.451
Total Bitrate: 21,17 Mbps
Video: MPEG-4 AVC Video / 19990 kbps / 1080p / 23,976 fps / 16:9 / High Profile 4.1
Audio: Russian / Dolby Digital Audio / 2.0 / 48 kHz / 192 kbps
********************
PLAYLIST: 00006.MPLS
********************
<--- BEGIN FORUMS PASTE --->Код:
Код:
Total   Video
Title                                                           Codec   Length  Movie Size      Disc Size       Bitrate Bitrate Main Audio Track                          Secondary Audio Track
-----                                                           ------  ------- --------------  --------------  ------- ------- ------------------                        ---------------------
00006.MPLS                                                      AVC     0:10:28 1 664 022 528   30 602 060 772  21,18   19,99   DD AC3 2.0 192Kbps

Код:
Код:
DISC INFO:
Disc Title:     Смешарики Начало 3D (Blu-ray) [rutracker.org]
Disc Size:      30 602 060 772 bytes
Protection:     AACS
BD-Java:        No
Extras:         Blu-ray 3D
BDInfo:         0.5.8
PLAYLIST REPORT:
Name:                   00006.MPLS
Length:                 0:10:28.627 (h:m:s.ms)
Size:                   1 664 022 528 bytes
Total Bitrate:          21,18 Mbps
VIDEO:
Codec                   Bitrate             Description
-----                   -------             -----------
MPEG-4 AVC Video        19994 kbps          1080p / 23,976 fps / 16:9 / High Profile 4.1
AUDIO:
Codec                           Language        Bitrate         Description
-----                           --------        -------         -----------
Dolby Digital Audio             Russian         192 kbps        2.0 / 48 kHz / 192 kbps
FILES:
Name            Time In         Length          Size            Total Bitrate
----            -------         ------          ----            -------------
00023.M2TS      0:00:00.000     0:10:28.627     1 664 022 528   21 177
CHAPTERS:
Number          Time In         Length          Avg Video Rate  Max 1-Sec Rate  Max 1-Sec Time  Max 5-Sec Rate  Max 5-Sec Time  Max 10Sec Rate  Max 10Sec Time  Avg Frame Size  Max Frame Size  Max Frame Time
------          -------         ------          --------------  --------------  --------------  --------------  --------------  --------------  --------------  --------------  --------------  --------------
1               0:00:00.000     0:10:28.627     19 994 kbps     46 377 kbps     00:04:13.086    42 696 kbps     00:04:12.961    39 616 kbps     00:08:55.159    104 241 bytes   562 226 bytes   00:09:14.262
STREAM DIAGNOSTICS:
File            PID             Type            Codec           Language                Seconds                 Bitrate                 Bytes           Packets
----            ---             ----            -----           --------                --------------          --------------          -------------   -----
00023.M2TS      4113 (0x1011)   0x1B            AVC                                     628,545                 19 997                  1 571 113 820   8 547 471
00023.M2TS      4352 (0x1100)   0x81            AC3             rus (Russian)           628,545                 192                     15 087 360      98 225

<---- END FORUMS PASTE ---->
QUICK SUMMARY:
Disc Title: Смешарики Начало 3D (Blu-ray) [rutracker.org]
Disc Size: 30 602 060 772 bytes
Protection: AACS
BD-Java: No
Playlist: 00006.MPLS
Size: 1 664 022 528 bytes
Length: 0:10:28.627
Total Bitrate: 21,18 Mbps
Video: MPEG-4 AVC Video / 19994 kbps / 1080p / 23,976 fps / 16:9 / High Profile 4.1
Audio: Russian / Dolby Digital Audio / 2.0 / 48 kHz / 192 kbps
********************
PLAYLIST: 00007.MPLS
********************
<--- BEGIN FORUMS PASTE --->Код:
Код:
Total   Video
Title                                                           Codec   Length  Movie Size      Disc Size       Bitrate Bitrate Main Audio Track                          Secondary Audio Track
-----                                                           ------  ------- --------------  --------------  ------- ------- ------------------                        ---------------------
00007.MPLS                                                      AVC     0:01:50 289 388 544     30 602 060 772  21,03   19,85   DD AC3 2.0 192Kbps

Код:
Код:
DISC INFO:
Disc Title:     Смешарики Начало 3D (Blu-ray) [rutracker.org]
Disc Size:      30 602 060 772 bytes
Protection:     AACS
BD-Java:        No
Extras:         Blu-ray 3D
BDInfo:         0.5.8
PLAYLIST REPORT:
Name:                   00007.MPLS
Length:                 0:01:50.110 (h:m:s.ms)
Size:                   289 388 544 bytes
Total Bitrate:          21,03 Mbps
VIDEO:
Codec                   Bitrate             Description
-----                   -------             -----------
MPEG-4 AVC Video        19849 kbps          1080p / 23,976 fps / 16:9 / High Profile 4.1
AUDIO:
Codec                           Language        Bitrate         Description
-----                           --------        -------         -----------
Dolby Digital Audio             Russian         192 kbps        2.0 / 48 kHz / 192 kbps
FILES:
Name            Time In         Length          Size            Total Bitrate
----            -------         ------          ----            -------------
00024.M2TS      0:00:00.000     0:01:50.110     289 388 544     21 025
CHAPTERS:
Number          Time In         Length          Avg Video Rate  Max 1-Sec Rate  Max 1-Sec Time  Max 5-Sec Rate  Max 5-Sec Time  Max 10Sec Rate  Max 10Sec Time  Avg Frame Size  Max Frame Size  Max Frame Time
------          -------         ------          --------------  --------------  --------------  --------------  --------------  --------------  --------------  --------------  --------------  --------------
1               0:00:00.000     0:01:50.110     19 849 kbps     47 934 kbps     00:00:38.079    38 364 kbps     00:00:59.684    32 575 kbps     00:00:59.768    103 483 bytes   440 232 bytes   00:01:23.875
STREAM DIAGNOSTICS:
File            PID             Type            Codec           Language                Seconds                 Bitrate                 Bytes           Packets
----            ---             ----            -----           --------                --------------          --------------          -------------   -----
00024.M2TS      4113 (0x1011)   0x1B            AVC                                     110,027                 19 864                  273 196 203     1 486 304
00024.M2TS      4352 (0x1100)   0x81            AC3             rus (Russian)           110,027                 192                     2 642 688       17 205

<---- END FORUMS PASTE ---->
QUICK SUMMARY:
Disc Title: Смешарики Начало 3D (Blu-ray) [rutracker.org]
Disc Size: 30 602 060 772 bytes
Protection: AACS
BD-Java: No
Playlist: 00007.MPLS
Size: 289 388 544 bytes
Length: 0:01:50.110
Total Bitrate: 21,03 Mbps
Video: MPEG-4 AVC Video / 19849 kbps / 1080p / 23,976 fps / 16:9 / High Profile 4.1
Audio: Russian / Dolby Digital Audio / 2.0 / 48 kHz / 192 kbps
********************
PLAYLIST: 00008.MPLS
********************
<--- BEGIN FORUMS PASTE --->Код:
Код:
Total   Video
Title                                                           Codec   Length  Movie Size      Disc Size       Bitrate Bitrate Main Audio Track                          Secondary Audio Track
-----                                                           ------  ------- --------------  --------------  ------- ------- ------------------                        ---------------------
00008.MPLS                                                      AVC     0:01:42 248 113 152     30 602 060 772  19,35   18,24   DD AC3 2.0 192Kbps

Код:
Код:
DISC INFO:
Disc Title:     Смешарики Начало 3D (Blu-ray) [rutracker.org]
Disc Size:      30 602 060 772 bytes
Protection:     AACS
BD-Java:        No
Extras:         Blu-ray 3D
BDInfo:         0.5.8
PLAYLIST REPORT:
Name:                   00008.MPLS
Length:                 0:01:42.602 (h:m:s.ms)
Size:                   248 113 152 bytes
Total Bitrate:          19,35 Mbps
VIDEO:
Codec                   Bitrate             Description
-----                   -------             -----------
MPEG-4 AVC Video        18239 kbps          1080p / 23,976 fps / 16:9 / High Profile 4.1
AUDIO:
Codec                           Language        Bitrate         Description
-----                           --------        -------         -----------
Dolby Digital Audio             Russian         192 kbps        2.0 / 48 kHz / 192 kbps
FILES:
Name            Time In         Length          Size            Total Bitrate
----            -------         ------          ----            -------------
00025.M2TS      0:00:00.000     0:01:42.602     248 113 152     19 346
CHAPTERS:
Number          Time In         Length          Avg Video Rate  Max 1-Sec Rate  Max 1-Sec Time  Max 5-Sec Rate  Max 5-Sec Time  Max 10Sec Rate  Max 10Sec Time  Avg Frame Size  Max Frame Size  Max Frame Time
------          -------         ------          --------------  --------------  --------------  --------------  --------------  --------------  --------------  --------------  --------------  --------------
1               0:00:00.000     0:01:42.602     18 239 kbps     45 924 kbps     00:01:01.936    36 160 kbps     00:01:01.936    31 081 kbps     00:00:58.975    95 088 bytes    432 760 bytes   00:01:02.896
STREAM DIAGNOSTICS:
File            PID             Type            Codec           Language                Seconds                 Bitrate                 Bytes           Packets
----            ---             ----            -----           --------                --------------          --------------          -------------   -----
00025.M2TS      4113 (0x1011)   0x1B            AVC                                     102,519                 18 253                  233 916 459     1 272 771
00025.M2TS      4352 (0x1100)   0x81            AC3             rus (Russian)           102,519                 192                     2 462 976       16 035

<---- END FORUMS PASTE ---->
QUICK SUMMARY:
Disc Title: Смешарики Начало 3D (Blu-ray) [rutracker.org]
Disc Size: 30 602 060 772 bytes
Protection: AACS
BD-Java: No
Playlist: 00008.MPLS
Size: 248 113 152 bytes
Length: 0:01:42.602
Total Bitrate: 19,35 Mbps
Video: MPEG-4 AVC Video / 18239 kbps / 1080p / 23,976 fps / 16:9 / High Profile 4.1
Audio: Russian / Dolby Digital Audio / 2.0 / 48 kHz / 192 kbps
********************
PLAYLIST: 00009.MPLS
********************
<--- BEGIN FORUMS PASTE --->Код:
Код:
Total   Video
Title                                                           Codec   Length  Movie Size      Disc Size       Bitrate Bitrate Main Audio Track                          Secondary Audio Track
-----                                                           ------  ------- --------------  --------------  ------- ------- ------------------                        ---------------------
00009.MPLS                                                      AVC     0:01:32 242 055 168     30 602 060 772  21,01   19,83   DD AC3 2.0 192Kbps

Код:
Код:
DISC INFO:
Disc Title:     Смешарики Начало 3D (Blu-ray) [rutracker.org]
Disc Size:      30 602 060 772 bytes
Protection:     AACS
BD-Java:        No
Extras:         Blu-ray 3D
BDInfo:         0.5.8
PLAYLIST REPORT:
Name:                   00009.MPLS
Length:                 0:01:32.175 (h:m:s.ms)
Size:                   242 055 168 bytes
Total Bitrate:          21,01 Mbps
VIDEO:
Codec                   Bitrate             Description
-----                   -------             -----------
MPEG-4 AVC Video        19832 kbps          1080p / 23,976 fps / 16:9 / High Profile 4.1
AUDIO:
Codec                           Language        Bitrate         Description
-----                           --------        -------         -----------
Dolby Digital Audio             Russian         192 kbps        2.0 / 48 kHz / 192 kbps
FILES:
Name            Time In         Length          Size            Total Bitrate
----            -------         ------          ----            -------------
00026.M2TS      0:00:00.000     0:01:32.175     242 055 168     21 008
CHAPTERS:
Number          Time In         Length          Avg Video Rate  Max 1-Sec Rate  Max 1-Sec Time  Max 5-Sec Rate  Max 5-Sec Time  Max 10Sec Rate  Max 10Sec Time  Avg Frame Size  Max Frame Size  Max Frame Time
------          -------         ------          --------------  --------------  --------------  --------------  --------------  --------------  --------------  --------------  --------------  --------------
1               0:00:00.000     0:01:32.175     19 832 kbps     45 654 kbps     00:01:18.870    33 773 kbps     00:01:12.030    30 248 kbps     00:01:12.322    103 396 bytes   382 809 bytes   00:01:07.317
STREAM DIAGNOSTICS:
File            PID             Type            Codec           Language                Seconds                 Bitrate                 Bytes           Packets
----            ---             ----            -----           --------                --------------          --------------          -------------   -----
00026.M2TS      4113 (0x1011)   0x1B            AVC                                     92,092                  19 850                  228 505 644     1 243 175
00026.M2TS      4352 (0x1100)   0x81            AC3             rus (Russian)           92,092                  192                     2 212 608       14 405

<---- END FORUMS PASTE ---->
QUICK SUMMARY:
Disc Title: Смешарики Начало 3D (Blu-ray) [rutracker.org]
Disc Size: 30 602 060 772 bytes
Protection: AACS
BD-Java: No
Playlist: 00009.MPLS
Size: 242 055 168 bytes
Length: 0:01:32.175
Total Bitrate: 21,01 Mbps
Video: MPEG-4 AVC Video / 19832 kbps / 1080p / 23,976 fps / 16:9 / High Profile 4.1
Audio: Russian / Dolby Digital Audio / 2.0 / 48 kHz / 192 kbps
********************
PLAYLIST: 00010.MPLS
********************
<--- BEGIN FORUMS PASTE --->Код:
Код:
Total   Video
Title                                                           Codec   Length  Movie Size      Disc Size       Bitrate Bitrate Main Audio Track                          Secondary Audio Track
-----                                                           ------  ------- --------------  --------------  ------- ------- ------------------                        ---------------------
00010.MPLS                                                      AVC     0:01:30 238 080 000     30 602 060 772  21,12   19,94   DD AC3 2.0 192Kbps

Код:
Код:
DISC INFO:
Disc Title:     Смешарики Начало 3D (Blu-ray) [rutracker.org]
Disc Size:      30 602 060 772 bytes
Protection:     AACS
BD-Java:        No
Extras:         Blu-ray 3D
BDInfo:         0.5.8
PLAYLIST REPORT:
Name:                   00010.MPLS
Length:                 0:01:30.173 (h:m:s.ms)
Size:                   238 080 000 bytes
Total Bitrate:          21,12 Mbps
VIDEO:
Codec                   Bitrate             Description
-----                   -------             -----------
MPEG-4 AVC Video        19942 kbps          1080p / 23,976 fps / 16:9 / High Profile 4.1
AUDIO:
Codec                           Language        Bitrate         Description
-----                           --------        -------         -----------
Dolby Digital Audio             Russian         192 kbps        2.0 / 48 kHz / 192 kbps
FILES:
Name            Time In         Length          Size            Total Bitrate
----            -------         ------          ----            -------------
00027.M2TS      0:00:00.000     0:01:30.173     238 080 000     21 122
CHAPTERS:
Number          Time In         Length          Avg Video Rate  Max 1-Sec Rate  Max 1-Sec Time  Max 5-Sec Rate  Max 5-Sec Time  Max 10Sec Rate  Max 10Sec Time  Avg Frame Size  Max Frame Size  Max Frame Time
------          -------         ------          --------------  --------------  --------------  --------------  --------------  --------------  --------------  --------------  --------------  --------------
1               0:00:00.000     0:01:30.173     19 942 kbps     34 138 kbps     00:01:11.321    30 582 kbps     00:01:07.317    29 023 kbps     00:01:02.687    103 968 bytes   417 494 bytes   00:01:23.374
STREAM DIAGNOSTICS:
File            PID             Type            Codec           Language                Seconds                 Bitrate                 Bytes           Packets
----            ---             ----            -----           --------                --------------          --------------          -------------   -----
00027.M2TS      4113 (0x1011)   0x1B            AVC                                     90,090                  19 960                  224 778 670     1 222 871
00027.M2TS      4352 (0x1100)   0x81            AC3             rus (Russian)           90,090                  192                     2 164 224       14 090

<---- END FORUMS PASTE ---->
QUICK SUMMARY:
Disc Title: Смешарики Начало 3D (Blu-ray) [rutracker.org]
Disc Size: 30 602 060 772 bytes
Protection: AACS
BD-Java: No
Playlist: 00010.MPLS
Size: 238 080 000 bytes
Length: 0:01:30.173
Total Bitrate: 21,12 Mbps
Video: MPEG-4 AVC Video / 19942 kbps / 1080p / 23,976 fps / 16:9 / High Profile 4.1
Audio: Russian / Dolby Digital Audio / 2.0 / 48 kHz / 192 kbps
********************
PLAYLIST: 00015.MPLS
********************
<--- BEGIN FORUMS PASTE --->Код:
Код:
Total   Video
Title                                                           Codec   Length  Movie Size      Disc Size       Bitrate Bitrate Main Audio Track                          Secondary Audio Track
-----                                                           ------  ------- --------------  --------------  ------- ------- ------------------                        ---------------------
00015.MPLS                                                      AVC     0:00:52 164 413 440     30 602 060 772  25,27   23,68   DD AC3 5.1 448Kbps

Код:
Код:
DISC INFO:
Disc Title:     Смешарики Начало 3D (Blu-ray) [rutracker.org]
Disc Size:      30 602 060 772 bytes
Protection:     AACS
BD-Java:        No
Extras:         Blu-ray 3D
BDInfo:         0.5.8
PLAYLIST REPORT:
Name:                   00015.MPLS
Length:                 0:00:52.052 (h:m:s.ms)
Size:                   164 413 440 bytes
Total Bitrate:          25,27 Mbps
VIDEO:
Codec                   Bitrate             Description
-----                   -------             -----------
MPEG-4 AVC Video        23684 kbps          1080p / 23,976 fps / 16:9 / High Profile 4.1
AUDIO:
Codec                           Language        Bitrate         Description
-----                           --------        -------         -----------
Dolby Digital Audio             Russian         448 kbps        5.1 / 48 kHz / 448 kbps
FILES:
Name            Time In         Length          Size            Total Bitrate
----            -------         ------          ----            -------------
00021.M2TS      0:00:00.000     0:00:52.052     164 413 440     25 269
CHAPTERS:
Number          Time In         Length          Avg Video Rate  Max 1-Sec Rate  Max 1-Sec Time  Max 5-Sec Rate  Max 5-Sec Time  Max 10Sec Rate  Max 10Sec Time  Avg Frame Size  Max Frame Size  Max Frame Time
------          -------         ------          --------------  --------------  --------------  --------------  --------------  --------------  --------------  --------------  --------------  --------------
1               0:00:00.000     0:00:52.052     23 684 kbps     48 969 kbps     00:00:14.806    41 878 kbps     00:00:14.431    38 979 kbps     00:00:14.431    123 480 bytes   435 162 bytes   00:00:15.765
STREAM DIAGNOSTICS:
File            PID             Type            Codec           Language                Seconds                 Bitrate                 Bytes           Packets
----            ---             ----            -----           --------                --------------          --------------          -------------   -----
00021.M2TS      4113 (0x1011)   0x1B            AVC                                     51,927                  23 742                  154 103 150     838 254
00021.M2TS      4352 (0x1100)   0x81            AC3             rus (Russian)           51,927                  449                     2 915 584       16 270

<---- END FORUMS PASTE ---->
QUICK SUMMARY:
Disc Title: Смешарики Начало 3D (Blu-ray) [rutracker.org]
Disc Size: 30 602 060 772 bytes
Protection: AACS
BD-Java: No
Playlist: 00015.MPLS
Size: 164 413 440 bytes
Length: 0:00:52.052
Total Bitrate: 25,27 Mbps
Video: MPEG-4 AVC Video / 23684 kbps / 1080p / 23,976 fps / 16:9 / High Profile 4.1
Audio: Russian / Dolby Digital Audio / 5.1 / 48 kHz / 448 kbps
Скриншоты меню
Скриншоты
Главные роли озвучивали
Бараш - В. Бочанов

Ёжик - В. Постников

Кар-Карыч и Совунья - С. Мардарь

Копатыч, Лосяш и Пин - М. Черняк

Крош - А. Виноградов

Нюша - С. Письмиченко
Смешарики. Начало (Денис Чернов) [2011, Мультфильм, приключения, детский, Blu-ray Disc 1080p]
Смешарики. Начало 3D / 3Д (Денис Чернов) [2011, Мультфильм, приключения, детский, BDRip-AVC] Half OverUnder / Вертикальная анаморфная стереопара



Вернуться к началу
 Профиль Отправить личное сообщение  
 
   Похожие торренты   Автор   Торрент   Размер 
В этой теме нет новых непрочитанных сообщений. Смешарики. Начало (Денис Чернов) [2011, мультфильм, комедия, приключения, семейный, BDRip 720p] R5

marya111

0 | 4

3.55 ГБ

В этой теме нет новых непрочитанных сообщений. Марин и его друзья. Подводные истории / Bubble Marin [s01 + Бонусы] (Мультсериал, мультфильм, приключения, детский, 2014-2015) WEB-DLRip 1080p от ExKinoRay | D (Карусель)

marya111

25 | 6

13.59 ГБ

В этой теме нет новых непрочитанных сообщений. Два хвоста [Мультфильм, детский, 2018] WEB-DL 1080p [iTunes]

salma3

0 | 0

2.85 ГБ

В этой теме нет новых непрочитанных сообщений. Головоломка / Inside Out (Пит Доктер, Роналдо Дель Кармен) [Мультфильм, комедия, полнометражный, 2015] Blu-ray Disc CEE 1080p, Dub+Sub [3D-Video | лицензия]

Dracon

53 | 74

43.74 ГБ

В этой теме нет новых непрочитанных сообщений. Зверополис / Zootopia (Мультфильм, полнометражный, детский, семейный, комедия, приключения, 2016) BDRip-AVC от MediaClub | D, P, А

marya111

38 | 2

3.11 ГБ

В этой теме нет новых непрочитанных сообщений. Лунтик и его друзья [01-08x1-473,478-479 из 479+485] (мультфильм, детский, комедия, приключения, семейный, 2006-2016) WEB-DLRip от ExKinoRay

marya111

11 | 35

16.02 ГБ

В этой теме нет новых непрочитанных сообщений. Супергерои / Bling [Мультфильм, детский, семейный, полнометражный, 2016] BDRemux 1080p, Dub [iTunes]

salma3

12 | 12

11.85 ГБ


Начать новую тему Ответить на тему  [ 1 сообщение ] 




Для Мосгорсуда, Роскомнадзора и рекламодателей:: mosgorsud-torrent[собачка]yandex.ru
cron