Торрент файл
скачать торрент магнет ссылка Добавлен: 29 июл 2012, 22:50
Размер: 2.36 ГБ
Сидеров: 70
Личеров: 7
Автор

СообщениеДобавлено: 29 июл 2012, 22:50 

Не в сети
Аватара пользователя
Дата регистрации:
28 ноя 2010, 22:22
Спасибо: 722 / 5
Сообщения: 2030
Тачки 2 3D / Cars 2 3D
Год выпуска: 2011
Страна: США
Студия: Pixar Animation Studios / Walt Disney Pictures
Жанр: Мультфильм, комедия, приключения, семейный
Продолжительность: 01:47:08
Перевод: Профессиональный (дублированный)
Режиссер на русском: Джон Лассетер
Режиссер на английском: John Lasseter
В ролях: Оуэн Уилсон, Ларри Кейбл Гай, Майкл Кейн, Эмили Мортимер, Эдди Иззард, Джон Туртурро, Брент Мусбургер, Джо Мантенья, Томас Кречманн, Питер Джекобсон
Роли озвучивали: Дмитрий Харатьян, Алика Смехова, Сергей Кузнецов, Жанна Фриске, Леонид Каневский, Леонид Ярмольник, Андрей Лёвин, Олег Белов
Описание: Молния МакКуин и его друг Мэтр в новом высокооктановом приключении. Начинается самая важная и престижная в мире гонка, Мировой Гран-При, в котором будет определен самый классный гонщик из всех категорий — Формула-1, NASCAR, Le Mans. МакКуину предстоит соревноваться с лучшими из лучших, на самых красивых и опасных трассах Японии, Франции и Италии. Но главное — Молния еще не знает, что они с Мэтром окажутся в самом сердце запутанного и головокружительного шпионского заговора.

Дополнительная информация по релизу: Обсуждение "Как и на чём смотреть 3Д"
Для просмотра 3D требуются анаглифные очки

Сэмпл: http://www.fileserve.com/file/dxaqgUF
Качество: BDrip
Контейнер: AVI
Формат 3D: Анаглиф red-cyan
Видео кодек: xVid
Аудио кодек: AC3
Видео: XviD, 2399 Кбит/с, 1280x536
Аудио: Русский (AC3, 6 ch, 384 Кбит/c)
Аудио 2: Английский (AC3, 6 ch, 384 Кбит/c)
MediaInfo
General
Complete name : \\MISHGANBOOK\Download\torrents\Мультфильмы\Tachki.2.3D.Anaglyph.2011.XviD.BDRip.720p.avi
Format : AVI
Format/Info : Audio Video Interleave
Format profile : OpenDML
File size : 2.36 GiB
Duration : 1h 46mn
Overall bit rate : 3 184 Kbps
Movie name : Cars 2 3D
Genre : Action
Writing application : VirtualDubMod 1.5.10.1 (build 2366/release)
Original source form/Name : Cartoon
Copyright : 3.u.i.l.D.TheJoker
Comment : http://3d-anaglyph.ucoz.net/
Video
ID : 0
Format : MPEG-4 Visual
Format profile : [email protected]
Format settings, BVOP : Yes
Format settings, QPel : No
Format settings, GMC : No warppoints
Format settings, Matrix : Default (MPEG)
Codec ID : XVID
Codec ID/Hint : XviD
Duration : 1h 46mn
Bit rate : 2 399 Kbps
Width : 1 280 pixels
Height : 536 pixels
Display aspect ratio : 2.35:1
Frame rate : 23.976 fps
Resolution : 24 bits
Colorimetry : 4:2:0
Scan type : Progressive
Bits/(Pixel*Frame) : 0.146
Stream size : 1.78 GiB (75%)
Writing library : XviD 1.2.1 (UTC 2008-12-04)
Audio #1
ID : 1
Format : AC-3
Format/Info : Audio Coding 3
Codec ID : 2000
Duration : 1h 46mn
Bit rate mode : Constant
Bit rate : 384 Kbps
Channel(s) : 6 channels
Channel positions : Front: L C R, Surround: L R, LFE
Sampling rate : 48.0 KHz
Stream size : 292 MiB (12%)
Alignment : Split accross interleaves
Interleave, duration : 42 ms (1.00 video frame)
Interleave, preload duration : 500 ms
Audio #2
ID : 2
Format : AC-3
Format/Info : Audio Coding 3
Codec ID : 2000
Duration : 1h 46mn
Bit rate mode : Constant
Bit rate : 384 Kbps
Channel(s) : 6 channels
Channel positions : Front: L C R, Surround: L R, LFE
Sampling rate : 48.0 KHz
Stream size : 292 MiB (12%)
Alignment : Split accross interleaves
Interleave, duration : 42 ms (1.00 video frame)
Interleave, preload duration : 500 ms
Скриншоты





Вернуться к началу
 Профиль Отправить личное сообщение  
 
   Похожие торренты   Автор   Торрент   Размер 
В этой теме нет новых непрочитанных сообщений. Тачки 3 / Cars 3 [Мультфильм, комедия, приключения, 2017] BDRip 720p, Dub+Sub [Лицензия]

salma3

0 | 0

6.48 ГБ

В этой теме нет новых непрочитанных сообщений. Тачки 3 / Cars 3 [Мультфильм, комедия, приключения, 2017] BDRip, Dub+Sub [Лицензия]

salma3

0 | 0

1.46 ГБ

В этой теме нет новых непрочитанных сообщений. Тачки 3 / Cars 3 [Мультфильм, комедия, приключения, 2017] BDRip 1080p, Dub+Sub [Лицензия]

salma3

0 | 0

8.78 ГБ

В этой теме нет новых непрочитанных сообщений. Тачки 3 / Cars 3 [мультфильм, комедия, приключения, 2017] DVD9, Dub+Sub [Лицензия]

salma3

0 | 0

6.39 ГБ

В этой теме нет новых непрочитанных сообщений. Тачки 3 / Cars 3 [Мультфильм, комедия, приключения, 2017] Blu-ray EUR 1080p, Dub+Sub [Лицензия]

salma3

7 | 7

33.32 ГБ

В этой теме нет новых непрочитанных сообщений. Тачки 3 / Cars 3 [Мультфильм, комедия, приключения, 2017] WEB-DLRip, Dub [iTunes]

salma3

0 | 0

745.35 МБ

В этой теме нет новых непрочитанных сообщений. Тачки 3 / Cars 3 [Мультфильм, комедия, приключения, 2017] WEB-DLRip-AVC, Dub [iTunes]

salma3

2 | 1

2.43 ГБ


Начать новую тему Ответить на тему  [ 1 сообщение ] 




Для Мосгорсуда, Роскомнадзора и рекламодателей:: mosgorsud-torrent[собачка]yandex.ru
cron